Results 1 to 1 of 1
  1. #1

    Default Sixteen (2013) - DVDScr - XviD - Mp3 - 1CD - Team Telly eXclusive

    Follow us on Social Media







    Code:
    General
    Complete name                            : Sixteen [2013].avi
    Format                                   : AVI
    Format/Info                              : Audio Video Interleave
    File size                                : 706 MiB
    Duration                                 : 2h 11mn
    Overall bit rate                         : 750 Kbps
    
    Video
    ID                                       : 0
    Format                                   : MPEG-4 Visual
    Format profile                           : [email protected]
    Format settings, BVOP                    : No
    Format settings, QPel                    : No
    Format settings, GMC                     : No warppoints
    Format settings, Matrix                  : Default (H.263)
    Codec ID                                 : XVID
    Codec ID/Hint                            : XviD
    Duration                                 : 2h 11mn
    Bit rate                                 : 637 Kbps
    Width                                    : 640 pixels
    Height                                   : 272 pixels
    Display aspect ratio                     : 2.35:1
    Frame rate                               : 29.970 fps
    Original frame rate                      : 29.000 fps
    Color space                              : YUV
    Chroma subsampling                       : 4:2:0
    Bit depth                                : 8 bits
    Scan type                                : Progressive
    Compression mode                         : Lossy
    Bits/(Pixel*Frame)                       : 0.122
    Stream size                              : 599 MiB (85%)
    Writing library                          : XviD 1.2.1 (UTC 2008-12-04)
    
    Audio
    ID                                       : 1
    Format                                   : MPEG Audio
    Format version                           : Version 1
    Format profile                           : Layer 3
    Mode                                     : Joint stereo
    Mode extension                           : MS Stereo
    Codec ID                                 : 55
    Codec ID/Hint                            : MP3
    Duration                                 : 2h 11mn
    Bit rate mode                            : Constant
    Bit rate                                 : 96.0 Kbps
    Channel(s)                               : 2 channels
    Sampling rate                            : 44.1 KHz
    Compression mode                         : Lossy
    Stream size                              : 90.3 MiB (13%)
    Alignment                                : Aligned on interleaves
    Interleave, duration                     : 26 ms (0.78 video frame)
    Writing library                          : LAME3.98.2



    Code:
    http://fileom.com/hwvvf0vf15t2/Sixteen.1CD.DVDScr.TeamTelly.avi.html
    
    http://ultramegabit.com/file/details/9wEeyVWuRmc
    
    http://turbobit.net/dfr05wyusntv/Sixteen.1CD.DVDScr.TeamTelly.avi.html

 

 

Posting Permissions

  • You may not post new threads
  • You may not post replies
  • You may not post attachments
  • You may not edit your posts
  •