Results 1 to 1 of 1
  1. #1
    Hot Member www.desirulez.net
    Join Date
    Feb 2013
    Posts
    1,015

    Cool The Thaliavar Tribute (Lungi Dance) Chennai Express 1080p Rip - Team ExD

    Follow us on Social Media










    General
    Complete name : The Thalaivar Tribute (Lungi Dance) -Chennai Express.mp4
    Format : MPEG-4
    Format profile : Base Media / Version 2
    Codec ID : mp42
    File size : 163 MiB
    Duration : 3mn 44s
    Overall bit rate : 6 076 Kbps
    Encoded date : UTC 2013-07-28 12:21:17
    Tagged date : UTC 2013-07-28 12:21:17
    gsst : 0
    gstd : 224976
    gssd : B4A7DA983HH1375678241237340
    gshh : r11---sn-h557sn7r.c.youtube.com

    Video
    ID : 1
    Format : AVC
    Format/Info : Advanced Video Codec
    Format profile : [email protected]
    Format settings, CABAC : Yes
    Format settings, ReFrames : 1 frame
    Codec ID : avc1
    Codec ID/Info : Advanced Video Coding
    Duration : 3mn 44s
    Bit rate mode : Variable
    Bit rate : 5 882 Kbps
    Maximum bit rate : 13.2 Mbps
    Width : 1 920 pixels
    Height : 1 080 pixels
    Display aspect ratio : 16:9
    Frame rate mode : Constant
    Frame rate : 25.000 fps
    Color space : YUV
    Chroma subsampling : 4:2:0
    Bit depth : 8 bits
    Scan type : Progressive
    Bits/(Pixel*Frame) : 0.113
    Stream size : 158 MiB (97%)
    Tagged date : UTC 2013-07-28 12:21:26

    Audio
    ID : 2
    Format : AAC
    Format/Info : Advanced Audio Codec
    Format version : Version 4
    Format profile : LC
    Format settings, SBR : No
    Codec ID : 40
    Duration : 3mn 44s
    Bit rate mode : Variable
    Bit rate : 192 Kbps
    Maximum bit rate : 203 Kbps
    Channel(s) : 2 channels
    Channel positions : Front: L R
    Sampling rate : 44.1 KHz
    Stream size : 5.15 MiB (3%)
    Title : IsoMedia File Produced by Google, 5-11-2011
    Encoded date : UTC 2013-07-28 12:21:24
    Tagged date : UTC 2013-07-28 12:21:26
    [/color]

    Song 2

    General
    Complete name : Lungi Dance Pack\The Thalaivar Tribute (Lungi Dance) Feat. Yo Yo Honey Singh {LYRICS}.mp4
    Format : MPEG-4
    Format profile : Base Media / Version 2
    Codec ID : mp42
    File size : 105 MiB
    Duration : 4mn 28s
    Overall bit rate : 3 277 Kbps
    Encoded date : UTC 2013-07-22 10:07:12
    Tagged date : UTC 2013-07-22 10:07:12
    gsst : 0
    gstd : 268700
    gssd : B4A7DA941HH1375675938201372
    gshh : r1---sn-h557snel.c.youtube.com

    Video
    ID : 1
    Format : AVC
    Format/Info : Advanced Video Codec
    Format profile : [email protected]
    Format settings, CABAC : Yes
    Format settings, ReFrames : 1 frame
    Codec ID : avc1
    Codec ID/Info : Advanced Video Coding
    Duration : 4mn 28s
    Bit rate mode : Variable
    Bit rate : 3 083 Kbps
    Maximum bit rate : 12.4 Mbps
    Width : 1 920 pixels
    Height : 1 080 pixels
    Display aspect ratio : 16:9
    Frame rate mode : Constant
    Frame rate : 25.000 fps
    Color space : YUV
    Chroma subsampling : 4:2:0
    Bit depth : 8 bits
    Scan type : Progressive
    Bits/(Pixel*Frame) : 0.059
    Stream size : 98.7 MiB (94%)
    Tagged date : UTC 2013-07-22 10:07:16

    Audio
    ID : 2
    Format : AAC
    Format/Info : Advanced Audio Codec
    Format version : Version 4
    Format profile : LC
    Format settings, SBR : No
    Codec ID : 40
    Duration : 4mn 28s
    Bit rate mode : Variable
    Bit rate : 192 Kbps
    Maximum bit rate : 203 Kbps
    Channel(s) : 2 channels
    Channel positions : Front: L R
    Sampling rate : 44.1 KHz
    Stream size : 6.15 MiB (6%)
    Title : IsoMedia File Produced by Google, 5-11-2011
    Encoded date : UTC 2013-07-22 10:07:15
    Tagged date : UTC 2013-07-22 10:07:16
    [/B]













    [ DOWNLOAD ]





    [ arabloads ]

    Code:
    http://www.arabloads.com/7aju6t8ou1h7/The_Thalaivar_Tribute_(Lungi_Dance)_-Chennai_Express.mp4.html
    http://www.arabloads.com/w83m11rvna3b/The_Thalaivar_Tribute_(Lungi_Dance)_Feat._Yo_Yo_Honey_Singh.mp4.html
    [ hugefiles ]

    Code:
    http://hugefiles.net/o4rdjcmu17nq/The_Thalaivar_Tribute_(Lungi_Dance)_-Chennai_Express.mp4
    http://hugefiles.net/0qv8ctrdmecp/The_Thalaivar_Tribute_(Lungi_Dance)_Feat._Yo_Yo_Honey_Singh.mp4















 

 

Posting Permissions

  • You may not post new threads
  • You may not post replies
  • You may not post attachments
  • You may not edit your posts
  •