Results 1 to 1 of 1
  1. #1
    Hot Member www.desirulez.net
    Join Date
    Feb 2011
    Location
    Bulletproof IP
    Posts
    1,189

    Default Sixteen (2013) DVDScr - XviD - Mp3 - 1CD - TT eXclusive

    Follow us on Social Media





    Sixteen *2013*
    "DVDSCR - 1CD - XviD"
    ..: Team Telly ::..
    ..:: eXclusive - deep1007 ::..




    Media Info
    Code:
    General
    Complete name                            : Sixteen [2013].avi
    Format                                   : AVI
    Format/Info                              : Audio Video Interleave
    File size                                : 706 MiB
    Duration                                 : 2h 11mn
    Overall bit rate                         : 750 Kbps
    
    Video
    ID                                       : 0
    Format                                   : MPEG-4 Visual
    Format profile                           : [email protected]
    Format settings, BVOP                    : No
    Format settings, QPel                    : No
    Format settings, GMC                     : No warppoints
    Format settings, Matrix                  : Default (H.263)
    Codec ID                                 : XVID
    Codec ID/Hint                            : XviD
    Duration                                 : 2h 11mn
    Bit rate                                 : 637 Kbps
    Width                                    : 640 pixels
    Height                                   : 272 pixels
    Display aspect ratio                     : 2.35:1
    Frame rate                               : 29.970 fps
    Original frame rate                      : 29.000 fps
    Color space                              : YUV
    Chroma subsampling                       : 4:2:0
    Bit depth                                : 8 bits
    Scan type                                : Progressive
    Compression mode                         : Lossy
    Bits/(Pixel*Frame)                       : 0.122
    Stream size                              : 599 MiB (85%)
    Writing library                          : XviD 1.2.1 (UTC 2008-12-04)
    
    Audio
    ID                                       : 1
    Format                                   : MPEG Audio
    Format version                           : Version 1
    Format profile                           : Layer 3
    Mode                                     : Joint stereo
    Mode extension                           : MS Stereo
    Codec ID                                 : 55
    Codec ID/Hint                            : MP3
    Duration                                 : 2h 11mn
    Bit rate mode                            : Constant
    Bit rate                                 : 96.0 Kbps
    Channel(s)                               : 2 channels
    Sampling rate                            : 44.1 KHz
    Compression mode                         : Lossy
    Stream size                              : 90.3 MiB (13%)
    Alignment                                : Aligned on interleaves
    Interleave, duration                     : 26 ms (0.78 video frame)
    Writing library                          : LAME3.98.2
    Screenshots









    All Credits Goes To TT (Thanks)

    Size: 705.81 MB

    Code:
    http://turbobit.net/mu5780jogsk0/Sixteen-DVDScr-XviD-Mp3-1CD-TT.avi.html
    or
    http://hugefiles.net/djf8k8ucjk7r
    
    ..::Sample::..
    http://hugefiles.net/zk7nozvx33so

 

 

Posting Permissions

  • You may not post new threads
  • You may not post replies
  • You may not post attachments
  • You may not edit your posts
  •