Results 1 to 1 of 1
  1. #1
    Hot Member www.desirulez.net
    Join Date
    Feb 2013
    Posts
    1,015

    Cool Rabba Main Kya Karoon (2013) DVDSCR 1CD XviD - TT eXclusive

    Follow us on Social Media











    Rabba Main Kya Karoon *2013*
    "DVDSCR - 1CD - XviD"
    ..: Team Telly ::..
    ..:: eXclusive - deep1007 ::..


    Media Info

    General
    Complete name : Rabba Main Kya Karoon [2013].avi
    Format : AVI
    Format/Info : Audio Video Interleave
    File size : 719 MiB
    Duration : 1h 52mn
    Overall bit rate : 892 Kbps

    Video
    ID : 0
    Format : MPEG-4 Visual
    Format profile : [email protected]
    Format settings, BVOP : No
    Format settings, QPel : No
    Format settings, GMC : No warppoints
    Format settings, Matrix : Default (H.263)
    Codec ID : XVID
    Codec ID/Hint : XviD
    Duration : 1h 52mn
    Bit rate : 778 Kbps
    Width : 640 pixels
    Height : 272 pixels
    Display aspect ratio : 2.35:1
    Frame rate : 29.970 fps
    Original frame rate : 29.000 fps
    Color space : YUV
    Chroma subsampling : 4:2:0
    Bit depth : 8 bits
    Scan type : Progressive
    Compression mode : Lossy
    Bits/(Pixel*Frame) : 0.149
    Stream size : 627 MiB (87%)
    Writing library : XviD 1.2.1 (UTC 2008-12-04)

    Audio
    ID : 1
    Format : MPEG Audio
    Format version : Version 1
    Format profile : Layer 3
    Mode : Joint stereo
    Mode extension : MS Stereo
    Codec ID : 55
    Codec ID/Hint : MP3
    Duration : 1h 52mn
    Bit rate mode : Constant
    Bit rate : 96.0 Kbps
    Channel(s) : 2 channels
    Sampling rate : 44.1 KHz
    Compression mode : Lossy
    Stream size : 77.4 MiB (11%)
    Alignment : Aligned on interleaves
    Interleave, duration : 26 ms (0.78 video frame)
    Writing library : LAME3.98.2


    Screenshots








    ==================================
    SAMPLE
    ==================================



    [ DOWNLOAD ]


    [ uploadscenter ]

    Code:
    http://www.uploadscenter.com/n7p4acqifjq0
    [ arabloads ]

    Code:
    http://www.arabloads.com/a0so1mv00d0e/Rabba_Main_Kya_Karoon_[2013]_-_DVDSCR_-_1CD_-_XviD_-_[Team_Telly]_-_eXclusive_-_deep1007.avi.html
    [ hugefiles ]

    Code:
    http://hugefiles.net/xqqqiursd96f
















 

 

Posting Permissions

  • You may not post new threads
  • You may not post replies
  • You may not post attachments
  • You may not edit your posts
  •