Results 1 to 1 of 1
  1. #1
    dR Rockers www.desirulez.net
    Join Date
    Aug 2011
    Posts
    5,859

    Cool SIXTEEN (2013) - Untouched - DVDScr - NTSC - AC3 - [Team ExDR Exclusive]

    Follow us on Social Media












    Code:
    Format                                   : MPEG-PS
    File size                                : 1 024 MiB
    Duration                                 : 1h 5mn
    Overall bit rate mode                    : Variable
    Overall bit rate                         : 2 175 Kbps
    
    Video
    ID                                       : 224 (0xE0)
    Format                                   : MPEG Video
    Format version                           : Version 2
    Format profile                           : [email protected]
    Format settings, BVOP                    : Yes
    Format settings, Matrix                  : Default
    Format settings, GOP                     : M=3, N=13
    Duration                                 : 1h 5mn
    Bit rate mode                            : Variable
    Bit rate                                 : 1 939 Kbps
    Maximum bit rate                         : 9 008 Kbps
    Width                                    : 720 pixels
    Height                                   : 480 pixels
    Display aspect ratio                     : 4:3
    Frame rate                               : 29.970 fps
    Standard                                 : NTSC
    Color space                              : YUV
    Chroma subsampling                       : 4:2:0
    Bit depth                                : 8 bits
    Scan type                                : Progressive
    Compression mode                         : Lossy
    Bits/(Pixel*Frame)                       : 0.187
    Time code of first frame                 : 00:00:00;00
    Time code source                         : Group of pictures header
    Stream size                              : 913 MiB (89%)
    
    Audio
    ID                                       : 189 (0xBD)-128 (0x80)
    Format                                   : AC-3
    Format/Info                              : Audio Coding 3
    Mode extension                           : CM (complete main)
    Format settings, Endianness              : Big
    Muxing mode                              : DVD-Video
    Duration                                 : 1h 5mn
    Bit rate mode                            : Constant
    Bit rate                                 : 192 Kbps
    Channel(s)                               : 2 channels
    Channel positions                        : Front: L R
    Sampling rate                            : 48.0 KHz
    Bit depth                                : 16 bits
    Compression mode                         : Lossy
    Stream size                              : 90.4 MiB (9%)

















    SINGLE LINKS


    Code:
    http://extabit.com/file/2dudcozrzkf4s/SIXTEEN.(2013).Untouched.DvDScr.NTSC.AC3.[Team.ExDR.Exclusive].rar
    Code:
    http://lumfile.com/viaavxvda6ae/SIXTEEN.(2013).Untouched.DvDScr.NTSC.AC3.[Team.ExDR.Exclusive].rar.html

 

 

Posting Permissions

  • You may not post new threads
  • You may not post replies
  • You may not post attachments
  • You may not edit your posts
  •