Results 1 to 1 of 1
  1. #1
    dR Rockers www.desirulez.net
    Join Date
    Aug 2011
    Posts
    5,859

    Cool Rabba Main Kya Karoon (2013) - 700MB - 1CDRip - DVDscr - XviD [Team TT EXclusive]

    Follow us on Social Media












    Code:
    General
    Complete name                            : Rabba Main Kya Karoon [2013].avi
    Format                                   : AVI
    Format/Info                              : Audio Video Interleave
    File size                                : 719 MiB
    Duration                                 : 1h 52mn
    Overall bit rate                         : 892 Kbps
    
    Video
    ID                                       : 0
    Format                                   : MPEG-4 Visual
    Format profile                           : [email protected]
    Format settings, BVOP                    : No
    Format settings, QPel                    : No
    Format settings, GMC                     : No warppoints
    Format settings, Matrix                  : Default (H.263)
    Codec ID                                 : XVID
    Codec ID/Hint                            : XviD
    Duration                                 : 1h 52mn
    Bit rate                                 : 778 Kbps
    Width                                    : 640 pixels
    Height                                   : 272 pixels
    Display aspect ratio                     : 2.35:1
    Frame rate                               : 29.970 fps
    Original frame rate                      : 29.000 fps
    Color space                              : YUV
    Chroma subsampling                       : 4:2:0
    Bit depth                                : 8 bits
    Scan type                                : Progressive
    Compression mode                         : Lossy
    Bits/(Pixel*Frame)                       : 0.149
    Stream size                              : 627 MiB (87%)
    Writing library                          : XviD 1.2.1 (UTC 2008-12-04)
    
    Audio
    ID                                       : 1
    Format                                   : MPEG Audio
    Format version                           : Version 1
    Format profile                           : Layer 3
    Mode                                     : Joint stereo
    Mode extension                           : MS Stereo
    Codec ID                                 : 55
    Codec ID/Hint                            : MP3
    Duration                                 : 1h 52mn
    Bit rate mode                            : Constant
    Bit rate                                 : 96.0 Kbps
    Channel(s)                               : 2 channels
    Sampling rate                            : 44.1 KHz
    Compression mode                         : Lossy
    Stream size                              : 77.4 MiB (11%)
    Alignment                                : Aligned on interleaves
    Interleave, duration                     : 26 ms (0.78 video frame)
    Writing library                          : LAME3.98.2









    SINGLE LINKS


    Code:
    http://extabit.com/file/28x2nst8glec6/Rabba.Main.Kya.Karoon.[2013].DVDSCR.1CD.XviD.[Team.Telly].eXclusive-deep1007.avi

    Code:
    http://lumfile.com/y6itd7n0dbx8/Rabba.Main.Kya.Karoon.[2013].DVDSCR.1CD.XviD.[Team.Telly].eXclusive-deep1007.avi.html

 

 

Posting Permissions

  • You may not post new threads
  • You may not post replies
  • You may not post attachments
  • You may not edit your posts
  •