Results 1 to 1 of 1
  1. #1
    dR Rockers www.desirulez.net
    Join Date
    Jul 2009
    Posts
    551

    T

    Default Taylor Swift ft. T-Pain - Thug Story [2009][HD 720p][Very HQ][RS+MU]

    Follow us on Social Media








    Taylor Swift ft. T-Pain - Thug Story [2009]



    CAPS







    Code:
    General
    Complete name                    : Z:\M´┐Żzikler\Music Videos\Taylor Swift\Taylor Swift feat T-Pain - Thug Story [2009][720p].avi
    Format                           : AVI
    Format/Info                      : Audio Video Interleave
    File size                        : 69.4 MiB
    Duration                         : 1mn 25s
    Overall bit rate                 : 6 812 Kbps
    Director                         : created.with.SUPER(C).v2009.bld.36
    Writing application              : SUPER(C) - by eRightSoft
    
    Video
    Format                           : MPEG-4 Visual
    Format profile                   : Streaming [email protected]
    Format settings, BVOP            : Yes
    Format settings, QPel            : No
    Format settings, GMC             : No warppoints
    Format settings, Matrix          : Default
    Codec ID                         : XVID
    Codec ID/Hint                    : XviD
    Duration                         : 1mn 25s
    Bit rate                         : 6 580 Kbps
    Width                            : 1 280 pixels
    Height                           : 720 pixels
    Display aspect ratio             : 16/9
    Frame rate                       : 25.000 fps
    Resolution                       : 24 bits
    Colorimetry                      : 4:2:0
    Scan type                        : Progressive
    Bits/(Pixel*Frame)               : 0.286
    Stream size                      : 67.0 MiB (97%)
    Writing library                  : XviD 1.1.2 (UTC 2006-11-01)
    
    Audio
    Format                           : MPEG Audio
    Format version                   : Version 1
    Format profile                   : Layer 3
    Codec ID                         : 55
    Codec ID/Hint                    : MP3
    Duration                         : 1mn 25s
    Bit rate mode                    : Constant
    Bit rate                         : 224 Kbps
    Channel(s)                       : 2 channels
    Sampling rate                    : 48.0 KHz
    Resolution                       : 16 bits
    Stream size                      : 2.28 MiB (3%)
    Alignment                        : Aligned on interleaves
    Interleave, duration             : 24 ms (0.60 video frame)
    Interleave, preload duration     : 504 ms
    DOWNLOAD [69 MB]
    RapidShare
    MEGAUPLOAD
    [/quote]
    <

 

 

Posting Permissions

  • You may not post new threads
  • You may not post replies
  • You may not post attachments
  • You may not edit your posts
  •