Results 1 to 1 of 1
  1. #1
    dR Rockers www.desirulez.net
    Join Date
    Jul 2009
    Posts
    551

    T

    Default Lady GaGa - Poker Face [2009][DVDRip][Very HQ][RS+MU]

    Follow us on Social Media







    Lady GaGa - Poker Face [2009]











    Code:
    Video
    Format                           : xvid
    Codec ID                         : xvid
    Duration                         : 3mn 34s
    Bit rate                         : 3 799 Kbps
    Width                            : 720 pixels
    Height                           : 540 pixels
    Display aspect ratio             : 4/3
    Frame rate                       : 29.970 fps
    Resolution                       : 24 bits
    Bits/(Pixel*Frame)               : 0.326
    Stream size                      : 97.0 MiB (92%)
    
    Audio
    Format                           : MPEG Audio
    Format version                   : Version 1
    Format profile                   : Layer 3
    Codec ID                         : 55
    Codec ID/Hint                    : MP3
    Duration                         : 3mn 33s
    Bit rate mode                    : Constant
    Bit rate                         : 320 Kbps
    Channel(s)                       : 2 channels
    Sampling rate                    : 44.1 KHz
    Resolution                       : 16 bits
    Stream size                      : 8.16 MiB (8%)
    Alignment                        : Aligned on interleaves
    Interleave, duration             : 26 ms (0.78 video frame)
    Writing library                  : LAME3.98 (alpha)
    DOWNLOAD[105 MB]
    RAPIDSHARE
    MEGAUPLOAD
    [/quote]
    <

 

 

Posting Permissions

  • You may not post new threads
  • You may not post replies
  • You may not post attachments
  • You may not edit your posts
  •