Results 1 to 1 of 1
  1. #1
    Super Member www.desirulez.net
    Join Date
    Apr 2013
    Posts
    209

    Default No.1 Mr. Perfect (2013) (Hindi Dubbed) WEBRip 1CD XviD -TT

    Follow us on Social Media





    No.1 Mr. Perfect *2013*
    "HINDI DUBBED - WEBRip - 1CD - XviD"
    ..: Team Telly ::..
    ..:: eXclusive ::..


    Media Info

    General
    Complete name : No.1 Mr. Perfect [2013].avi
    Format : AVI
    Format/Info : Audio Video Interleave
    File size : 723 MiB
    Duration : 1h 56mn
    Overall bit rate : 866 Kbps

    Video
    ID : 0
    Format : MPEG-4 Visual
    Format profile : [email protected]
    Format settings, BVOP : No
    Format settings, QPel : No
    Format settings, GMC : No warppoints
    Format settings, Matrix : Default (H.263)
    Codec ID : XVID
    Codec ID/Hint : XviD
    Duration : 1h 56mn
    Bit rate : 752 Kbps
    Width : 640 pixels
    Height : 272 pixels
    Display aspect ratio : 2.35:1
    Frame rate : 29.970 fps
    Original frame rate : 29.000 fps
    Color space : YUV
    Chroma subsampling : 4:2:0
    Bit depth : 8 bits
    Scan type : Progressive
    Compression mode : Lossy
    Bits/(Pixel*Frame) : 0.144
    Stream size : 628 MiB (87%)
    Writing library : XviD 1.2.1 (UTC 2008-12-04)

    Audio
    ID : 1
    Format : MPEG Audio
    Format version : Version 1
    Format profile : Layer 3
    Mode : Joint stereo
    Mode extension : MS Stereo
    Codec ID : 55
    Codec ID/Hint : MP3
    Duration : 1h 56mn
    Bit rate mode : Constant
    Bit rate : 96.0 Kbps
    Channel(s) : 2 channels
    Sampling rate : 44.1 KHz
    Compression mode : Lossy
    Stream size : 80.1 MiB (11%)
    Alignment : Aligned on interleaves
    Interleave, duration : 26 ms (0.78 video frame)
    Writing library : LAME3.98.2


    Screenshots










    ==================================
    SAMPLE
    ==================================




    [ DOWNLOAD ]




    Code:
    http://rapidgator.net/file/62c9b0d16a5b6fc451b914154b0f5266/s37knaiq4mos.html
    http://rapidgator.net/file/2fa56874b6e757a43b8ae1bf1e48e32d/vsdn02s9myud.html
    Code:
    http://lumfile.com/s8mx896v47bs/s37knaiq4mos.html
    http://lumfile.com/958l7wvh2rv9/vsdn02s9myud.html

 

 

Posting Permissions

  • You may not post new threads
  • You may not post replies
  • You may not post attachments
  • You may not edit your posts
  •