Results 1 to 2 of 2
  1. #1
    Hot Member www.desirulez.net
    Join Date
    Feb 2013
    Posts
    1,015

    Cool Dua Rabba Main Kya Karoon - 720phd Song Arshad Warsi Akash Chopra

    Follow us on Social Media









    General
    Complete name : F:Hind SongsNew folderDua Rabba Main Kya Karoon 720phd Song-Arshad Warsi, Akash Chopra.mp4
    Format : MPEG-4
    Format profile : Base Media / Version 2
    Codec ID : mp42
    File size : 26.4 MiB
    Duration : 2mn 0s
    Overall bit rate : 1 847 Kbps
    Encoded date : UTC 2013-07-26 21:22:58
    Tagged date : UTC 2013-07-26 21:22:58
    gsst : 0
    gstd : 120185
    gssd : B0109180BHH1375437963279893
    gshh : r8---sn-uh-30ar.c.youtube.com

    Video
    ID : 1
    Format : AVC
    Format/Info : Advanced Video Codec
    Format profile : [email protected]
    Format settings, CABAC : Yes
    Format settings, ReFrames : 1 frame
    Codec ID : avc1
    Codec ID/Info : Advanced Video Coding
    Duration : 2mn 0s
    Bit rate mode : Variable
    Bit rate : 1 653 Kbps
    Maximum bit rate : 3 066 Kbps
    Width : 1 280 pixels
    Height : 720 pixels
    Display aspect ratio : 16:9
    Frame rate mode : Constant
    Frame rate : 25.000 fps
    Color space : YUV
    Chroma subsampling : 4:2:0
    Bit depth : 8 bits
    Scan type : Progressive
    Bits/(Pixel*Frame) : 0.072
    Stream size : 23.7 MiB (89%)
    Tagged date : UTC 2013-07-26 21:23:00

    Audio
    ID : 2
    Format : AAC
    Format/Info : Advanced Audio Codec
    Format version : Version 4
    Format profile : LC
    Format settings, SBR : No
    Codec ID : 40
    Duration : 2mn 0s
    Bit rate mode : Variable
    Bit rate : 192 Kbps
    Maximum bit rate : 202 Kbps
    Channel(s) : 2 channels
    Channel positions : Front: L R
    Sampling rate : 44.1 KHz
    Stream size : 2.75 MiB (10%)
    Title : IsoMedia File Produced by Google, 5-11-2011
    Encoded date : UTC 2013-07-26 21:22:59
    Tagged date : UTC 2013-07-26 21:23:00













    Code:
    http://filesflash.com/sc7td796

    indian user

    Code:
    http://filesflash:8001.com/sc7td796

    Code:
    http://www.arabloads.com/8ws0k8jeqf9n/Dua_Rabba_Main_Kya_Karoon_720phd_Song-Arshad_Warsi,_Akash_Chopra.mp4.html







  2. #2
    Senior Member www.desirulez.net
    Join Date
    Mar 2013
    Posts
    123

    Default

    thanks buddy

 

 

Posting Permissions

  • You may not post new threads
  • You may not post replies
  • You may not post attachments
  • You may not edit your posts
  •