Results 1 to 2 of 2
  1. #1
    Hot Member www.desirulez.net
    Join Date
    Feb 2013
    Posts
    1,015

    Cool Teri Yaad Saath hai - Irfan Nazar (Official Video)720p

    Follow us on Social Media









    General
    Complete name : F:Hind SongsNew folderTeri Yaad Saath hai - Irfan Nazar (Official Video)720p hd.mp4
    Format : MPEG-4
    Format profile : Base Media / Version 2
    Codec ID : mp42
    File size : 52.4 MiB
    Duration : 3mn 51s
    Overall bit rate mode : Variable
    Overall bit rate : 1 897 Kbps
    Encoded date : UTC 2012-05-10 18:19:12
    Tagged date : UTC 2012-05-10 18:19:12
    gsst : 0
    gstd : 232060
    gssd : BADC23384HH1374069813963857
    gshh : r14---sn-i3b7sn7e.c.youtube.com
    Xtra : WM/MediaClassPrimaryID

    Video
    ID : 1
    Format : AVC
    Format/Info : Advanced Video Codec
    Format profile : [email protected]
    Format settings, CABAC : Yes
    Format settings, ReFrames : 1 frame
    Format settings, GOP : M=1, N=30
    Codec ID : avc1
    Codec ID/Info : Advanced Video Coding
    Duration : 3mn 51s
    Bit rate : 1 742 Kbps
    Maximum bit rate : 4 340 Kbps
    Width : 1 280 pixels
    Height : 720 pixels
    Display aspect ratio : 16:9
    Frame rate mode : Constant
    Frame rate : 25.000 fps
    Color space : YUV
    Chroma subsampling : 4:2:0
    Bit depth : 8 bits
    Scan type : Progressive
    Bits/(Pixel*Frame) : 0.076
    Stream size : 48.2 MiB (92%)
    Tagged date : UTC 2012-05-10 18:19:13

    Audio
    ID : 2
    Format : AAC
    Format/Info : Advanced Audio Codec
    Format profile : LC
    Codec ID : 40
    Duration : 3mn 51s
    Bit rate mode : Variable
    Bit rate : 152 Kbps
    Maximum bit rate : 205 Kbps
    Channel(s) : 2 channels
    Channel positions : Front: L R
    Sampling rate : 44.1 KHz
    Compression mode : Lossy
    Stream size : 4.20 MiB (8%)
    Title : IsoMedia File Produced by Google, 5-11-2011
    Encoded date : UTC 2012-05-10 18:19:13
    Tagged date : UTC 2012-05-10 18:19:13











    Code:
    http://www.arabloads.com/r7hgwq2lknvy/Teri_Yaad_Saath_hai_-_Irfan_Nazar_(Official_Video)720p_hd.mp4.html
    Code:
    http://filesflash.com/nyfdj4n9
    indian users

    Code:
    http://filesflash:8001.com/nyfdj4n9

  2. #2
    Senior Member www.desirulez.net
    Join Date
    Mar 2013
    Posts
    123

    Default

    thanks buddy....

 

 

Posting Permissions

  • You may not post new threads
  • You may not post replies
  • You may not post attachments
  • You may not edit your posts
  •