Results 1 to 2 of 2
  1. #1
    Hot Member www.desirulez.net
    Join Date
    Feb 2013
    Posts
    1,015

    Cool Brown Rang 720p hd- Yo Yo Honey Singh

    Follow us on Social Media









    General
    Complete name : F:Hind SongsNew folderBrown Rang 720p hd- Yo Yo Honey Singh.mp4.mp4
    Format : MPEG-4
    Format profile : Base Media / Version 2
    Codec ID : mp42
    File size : 35.9 MiB
    Duration : 2mn 58s
    Overall bit rate : 1 684 Kbps
    Encoded date : UTC 2012-03-01 13:41:30
    Tagged date : UTC 2012-03-01 13:41:30
    gsst : 0
    gstd : 179001
    gssd : B4A7D0F85MH1345748553366375
    gshh : o-o---preferred---ams03s07---v10---lscache5.c.youtube.com

    Video
    ID : 1
    Format : AVC
    Format/Info : Advanced Video Codec
    Format profile : [email protected]
    Format settings, CABAC : Yes
    Format settings, ReFrames : 1 frame
    Codec ID : avc1
    Codec ID/Info : Advanced Video Coding
    Duration : 2mn 58s
    Bit rate mode : Variable
    Bit rate : 1 530 Kbps
    Maximum bit rate : 3 107 Kbps
    Width : 1 280 pixels
    Height : 720 pixels
    Display aspect ratio : 16:9
    Frame rate mode : Constant
    Frame rate : 25.000 fps
    Color space : YUV
    Chroma subsampling : 4:2:0
    Bit depth : 8 bits
    Scan type : Progressive
    Bits/(Pixel*Frame) : 0.066
    Stream size : 32.6 MiB (91%)
    Tagged date : UTC 2012-03-01 13:41:30

    Audio
    ID : 2
    Format : AAC
    Format/Info : Advanced Audio Codec
    Format version : Version 4
    Format profile : LC
    Format settings, SBR : No
    Codec ID : 40
    Duration : 2mn 58s
    Bit rate mode : Variable
    Bit rate : 152 Kbps
    Maximum bit rate : 210 Kbps
    Channel(s) : 2 channels
    Channel positions : Front: L R
    Sampling rate : 44.1 KHz
    Stream size : 3.24 MiB (9%)
    Title : IsoMedia File Produced by Google, 5-11-2011
    Encoded date : UTC 2012-03-01 13:41:30
    Tagged date : UTC 2012-03-01 13:41:30














    Code:
    http://www.arabloads.com/1bbii7t6jwq7/Brown_Rang_720p_hd-_Yo_Yo_Honey_Singh.mp4.mp4.html


    Code:
    http://hugefiles.net/enubgs5i98t1

  2. #2
    Senior Member www.desirulez.net
    Join Date
    Mar 2013
    Posts
    123

    Default

    more links plz....

 

 

Posting Permissions

  • You may not post new threads
  • You may not post replies
  • You may not post attachments
  • You may not edit your posts
  •