Results 1 to 1 of 1
  1. #1
    dR Rockers www.desirulez.net
    Join Date
    Jul 2009
    Posts
    551

    T

    Default Beyonce - Naughty Girl [2003][HD 720p][Best Quality!][RS+MU]

    Follow us on Social Media








    Beyonce - Naughty Girl [2003][HD 720p]




    CAPS










    Code:
    Video
    Format                           : MPEG-4 Visual
    Format settings, BVOP            : Yes
    Format settings, QPel            : No
    Format settings, GMC             : No warppoints
    Format settings, Matrix          : Default
    Muxing mode                      : Packed bitstream
    Codec ID                         : DX50
    Codec ID/Hint                    : DivX 5
    Duration                         : 3mn 26s
    Bit rate                         : 4 301 Kbps
    Width                            : 1 280 pixels
    Height                           : 720 pixels
    Display aspect ratio             : 16/9
    Frame rate                       : 25.000 fps
    Resolution                       : 24 bits
    Colorimetry                      : 4:2:0
    Scan type                        : Progressive
    Bits/(Pixel*Frame)               : 0.187
    Stream size                      : 106 MiB (94%)
    Title                            : Main
    Writing library                  : DivX 6.7.0 (UTC 2007-09-20)
    
    Audio
    Format                           : MPEG Audio
    Format version                   : Version 1
    Format profile                   : Layer 3
    Codec ID                         : 55
    Codec ID/Hint                    : MP3
    Duration                         : 3mn 26s
    Bit rate mode                    : Constant
    Bit rate                         : 256 Kbps
    Channel(s)                       : 2 channels
    Sampling rate                    : 48.0 KHz
    Resolution                       : 16 bits
    Stream size                      : 6.29 MiB (6%)
    Alignment                        : Split accross interleaves
    Interleave, duration             : 40 ms (1.00 video frame)
    Interleave, preload duration     : 500 ms
    Title                            : Audio 
    Writing library                  : LAME3.97 (beta)
    ..:: DOWNLOAD ::..
    RAPIDSHARE
    MEGAUPLOAD
    [/quote]
    <

 

 

Posting Permissions

  • You may not post new threads
  • You may not post replies
  • You may not post attachments
  • You may not edit your posts
  •