Results 1 to 1 of 1
  1. #1
    dR Rockers www.desirulez.net
    Join Date
    Jul 2009
    Posts
    551

    T

    Default Linkin Park - What I've Done HD 720p [Best Quality][RS+MU]

    Follow us on Social Media








    Linkin Park - What I've Done HD





    CAPS

















    Code:
    Video
    Format                           : MPEG-4 Visual
    Format settings, BVOP            : Yes
    Format settings, QPel            : No
    Format settings, GMC             : No warppoints
    Format settings, Matrix          : Default
    Muxing mode                      : Packed bitstream
    Codec ID                         : DX50
    Codec ID/Hint                    : DivX 5
    Duration                         : 3mn 24s
    Bit rate                         : 4 264 Kbps
    Width                            : 1 200 pixels
    Height                           : 544 pixels
    Display aspect ratio             : 2.2
    Frame rate                       : 25.000 fps
    Resolution                       : 24 bits
    Colorimetry                      : 4:2:0
    Scan type                        : Progressive
    Bits/(Pixel*Frame)               : 0.261
    Stream size                      : 104 MiB (90%)
    Title                            : Main
    Writing library                  : DivX 6.6.1.4
    
    Audio
    Format                           : AC-3
    Format/Info                      : Audio Coding 3
    Codec ID                         : 2000
    Duration                         : 3mn 24s
    Bit rate mode                    : Constant
    Bit rate                         : 448 Kbps
    Channel(s)                       : 2 channels
    Channel positions                : L R
    Sampling rate                    : 48.0 KHz
    Stream size                      : 10.9 MiB (9%)
    Alignment                        : Split accross interleaves
    Interleave, duration             : 40 ms (1.00 video frame)
    Interleave, preload duration     : 500 ms
    Title                            : Audio
    ..:: DOWNLOAD ::..
    RAPIDSHARE
    MEGAUPLOAD
    [/quote]
    <

 

 

Posting Permissions

  • You may not post new threads
  • You may not post replies
  • You may not post attachments
  • You may not edit your posts
  •