Results 1 to 1 of 1
  1. #1
    Super Member www.desirulez.net
    Join Date
    Apr 2013
    Posts
    209

    Default Diljale (1996) DVDRip Upscaled x264 AC3

    Follow us on Social Media





    Code:
            General
            Unique ID                                : 196387887760572763286008782719903584054 (0x93BEEE6E9CA9D32297A99410189BCF36)
            Complete name                            : D:\Ripped\NEW\Diljale (1996)\Diljale (1996) DVDRip Upscaled x264 AC3 - 6 (DUS)\Diljale (1996) DVDRip Upscaled x264 AC3 - 6 (DUS).mkv
            Format                                   : Matroska
            Format version                           : Version 2
            File size                                : 2.19 GiB
            Duration                                 : 2h 15mn
            Overall bit rate mode                    : Variable
            Overall bit rate                         : 2 314 Kbps
            Encoded date                             : UTC 2012-03-03 14:30:30
            Writing application                      : mkvmerge v5.2.1 ('A Far Off Place') built on Jan  2 2012 23:21:10
            Writing library                          : libebml v1.2.3 + libmatroska v1.3.0
    
            Video
            ID                                       : 1
            Format                                   : AVC
            Format/Info                              : Advanced Video Codec
            Format profile                           : [email protected]
            Format settings, CABAC                   : Yes
            Format settings, ReFrames                : 3 frames
            Codec ID                                 : V_MPEG4/ISO/AVC
            Duration                                 : 2h 15mn
            Bit rate mode                            : Variable
            Bit rate                                 : 2 056 Kbps
            Maximum bit rate                         : 40.0 Mbps
            Width                                    : 1 280 pixels
            Height                                   : 560 pixels
            Display aspect ratio                     : 2.25:1
            Frame rate                               : 29.970 fps
            Color space                              : YUV
            Chroma subsampling                       : 4:2:0
            Bit depth                                : 8 bits
            Scan type                                : Progressive
            Bits/(Pixel*Frame)                       : 0.096
            Stream size                              : 1.90 GiB (87%)
            Writing library                          : x264 core 120 r2164 da19765
            Encoding settings                        : cabac=1 / ref=3 / deblock=1:-1:-1 / analyse=0x3:0x113 / me=hex / subme=7 / psy=1 / psy_rd=1.00:0.15 / mixed_ref=1 / me_range=16 / chroma_me=1 / trellis=1 / 8x8dct=1 / cqm=0 / deadzone=21,11 / fast_pskip=1 / chroma_qp_offset=-3 / threads=3 / sliced_threads=0 / slices=4 / nr=0 / decimate=1 / interlaced=0 / bluray_compat=1 / constrained_intra=0 / bframes=3 / b_pyramid=1 / b_adapt=1 / b_bias=0 / direct=1 / weightb=1 / open_gop=1 / weightp=1 / keyint=30 / keyint_min=1 / scenecut=40 / intra_refresh=0 / rc_lookahead=30 / rc=2pass / mbtree=1 / bitrate=2056 / ratetol=1.0 / qcomp=0.60 / qpmin=10 / qpmax=51 / qpstep=4 / cplxblur=20.0 / qblur=0.5 / vbv_maxrate=40000 / vbv_bufsize=30000 / nal_hrd=vbr / ip_ratio=1.40 / aq=1:1.00
            Language                                 : English
            Default                                  : Yes
            Forced                                   : No
    
            Audio
            ID                                       : 2
            Format                                   : AC-3
            Format/Info                              : Audio Coding 3
            Mode extension                           : CM (complete main)
            Codec ID                                 : A_AC3
            Duration                                 : 2h 15mn
            Bit rate mode                            : Constant
            Bit rate                                 : 256 Kbps
            Channel(s)                               : 2 channels
            Channel positions                        : Front: L R
            Sampling rate                            : 48.0 KHz
            Bit depth                                : 16 bits
            Compression mode                         : Lossy
            Stream size                              : 248 MiB (11%)
            Default                                  : Yes
            Forced                                   : No
    
            Sample
    
            Click here to enlarge
    
        Attached Files
            Diljale (1996) DVDRip Upscaled x264 AC3 - 6 (DUS).torrent
            (2.19 GB, 0 seed(s), 0 leech(s), 34 completed)
    
            Peers & Transfer Statistics:     Expand
            Files:     Expand
            Last 10 Downloaders:    Expand
    
    
            !!! Please Seed For Others Once Download The Torrent Because Sharing is Caring !!!
    
        Reply With Quote Reply With Quote  
        03-20-2012 #2
        kk4ever's Avatar
        kk4ever
        kk4ever is offline Θ ӛӛ  !Ṉ ḂȶȶlḕƑielđ Θ
        Team DUS
    
        I Proudly Released.. | With 46094 Snatches
        My Group Releases
    
        Join Date
            Nov 2008
        Location
            ~Sialkot~
        Posts
            29,579    
    
            Seeding Started....... 
    
    
            !!! Please Seed For Others Once Download The Torrent Because Sharing is Caring !!!
    
        Reply With Quote Reply With Quote  
        03-20-2012 #3
        BwTBadshah1
        BwTBadshah1 is offline Banned
    
        Join Date
            Jul 2011
        Location
            USA
        Posts
            11,963    
    
            great job!
    
            movie and songs were both great!! 
    
        Reply With Quote Reply With Quote  
        03-20-2012 #4
        pawan6622's Avatar
        pawan6622
        pawan6622 is offline BwT Badshah
    
        Join Date
            Jan 2010
        Location
            Beijing
        Posts
            2,917    
    
            good 
    
        Reply With Quote Reply With Quote  
        03-20-2012 #5
        ghosh's Avatar
        ghosh
        ghosh is offline BwT Mahaguru
    
        Join Date
            May 2007
        Posts
            682    
    
            Thank you. 
    
        Reply With Quote Reply With Quote
















    CREDITS TO ORIGINAL UPLOADER

    Sample






    Code:
    http://rapidgator.net/file/961f738af1b38a0594e3962f2eb328bd/tt0286593.html
    Code:
    http://lumfile.com/im4f2p4ebdm8/tt0286593.html
    Code:
    http://queenshare.com/o8q61oz1ene7
    .

    Code:
    http://uploaded.net/file/hxcbw6w3

 

 

Posting Permissions

  • You may not post new threads
  • You may not post replies
  • You may not post attachments
  • You may not edit your posts
  •