Results 1 to 1 of 1
  1. #1
    Hot Member www.desirulez.net
    Join Date
    Feb 2013
    Posts
    1,015

    Cool Best of Luck (2013) MC DVDSCR 1CD XviD - MP3 - eXclusive

    Follow us on Social Media












    Media Info

    General
    Complete name : Best of Luck [2013].avi
    Format : AVI
    Format/Info : Audio Video Interleave
    File size : 726 MiB
    Duration : 2h 8mn
    Overall bit rate : 790 Kbps

    Video
    ID : 0
    Format : MPEG-4 Visual
    Format profile : [email protected]
    Format settings, BVOP : No
    Format settings, QPel : No
    Format settings, GMC : No warppoints
    Format settings, Matrix : Default (H.263)
    Codec ID : XVID
    Codec ID/Hint : XviD
    Duration : 2h 8mn
    Bit rate : 676 Kbps
    Width : 640 pixels
    Height : 272 pixels
    Display aspect ratio : 2.35:1
    Frame rate : 29.970 fps
    Original frame rate : 29.000 fps
    Color space : YUV
    Chroma subsampling : 4:2:0
    Bit depth : 8 bits
    Scan type : Progressive
    Compression mode : Lossy
    Bits/(Pixel*Frame) : 0.130
    Stream size : 621 MiB (86%)
    Writing library : XviD 1.2.1 (UTC 2008-12-04)

    Audio
    ID : 1
    Format : MPEG Audio
    Format version : Version 1
    Format profile : Layer 3
    Mode : Joint stereo
    Mode extension : MS Stereo
    Codec ID : 55
    Codec ID/Hint : MP3
    Duration : 2h 8mn
    Bit rate mode : Constant
    Bit rate : 96.0 Kbps
    Channel(s) : 2 channels
    Sampling rate : 44.1 KHz
    Compression mode : Lossy
    Stream size : 88.2 MiB (12%)
    Alignment : Aligned on interleaves
    Interleave, duration : 26 ms (0.78 video frame)
    Writing library : LAME3.98.2


    Screenshots










    [ DOWNLOAD ]


    [ arabloads ]

    Code:
    http://www.arabloads.com/663qlqi1s4fo/Best_of_Luck_[2013]_-_MC_DVDSCR_-_1CD_-_XviD_-_MP3_.avi.html
    [ hugefiles ]

    Code:
    http://hugefiles.net/f1vp4uiwxb0e
    [ filesflash ]

    Code:
    http://filesflash.com/cqis6cjq
    [ filesflash for indian users ]

    Code:
    http://filesflash:8001.com/cqis6cjq











 

 

Posting Permissions

  • You may not post new threads
  • You may not post replies
  • You may not post attachments
  • You may not edit your posts
  •