Results 1 to 2 of 2
  1. #1
    Hot Member www.desirulez.net
    Join Date
    Feb 2013
    Posts
    1,015

    Cool Jal-Sajni 1080p (video song) from Album Boondh

    Follow us on Social Media









    General
    Unique ID : 177815346178772083653057488567264512755 (0x85C5FD6F2E2D5C6BB2E021689A668AF3)
    Complete name : E:Hindi VideoJal-Sajni 1080p Album Boondh.mkv
    Format : Matroska
    Format version : Version 2
    File size : 157 MiB
    Duration : 5mn 11s
    Overall bit rate mode : Variable
    Overall bit rate : 4 226 Kbps
    Encoded date : UTC 2013-07-04 11:53:45
    Writing application : mkvmerge v6.2.0 ('Promised Land' built on Apr 28 2013 12:22:01
    Writing library : libebml v1.3.0 + libmatroska v1.4.0

    Video
    ID : 1
    Format : AVC
    Format/Info : Advanced Video Codec
    Format profile : [email protected]
    Format settings, CABAC : Yes
    Format settings, ReFrames : 3 frames
    Codec ID : V_MPEG4/ISO/AVC
    Duration : 5mn 11s
    Bit rate mode : Variable
    Bit rate : 3 758 Kbps
    Maximum bit rate : 40.0 Mbps
    Width : 1 920 pixels
    Height : 1 080 pixels
    Display aspect ratio : 16:9
    Frame rate mode : Constant
    Frame rate : 25.000 fps
    Color space : YUV
    Chroma subsampling : 4:2:0
    Bit depth : 8 bits
    Scan type : Progressive
    Bits/(Pixel*Frame) : 0.072
    Stream size : 140 MiB (89%)
    Writing library : x264 core 133 r2334 a3ac64b
    Encoding settings : cabac=1 / ref=3 / deblock=1:0:0 / analyse=0x3:0x113 / me=hex / subme=7 / psy=1 / psy_rd=1.00:0.00 / mixed_ref=1 / me_range=16 / chroma_me=1 / trellis=1 / 8x8dct=1 / cqm=0 / deadzone=21,11 / fast_pskip=1 / chroma_qp_offset=-2 / threads=6 / lookahead_threads=1 / sliced_threads=0 / slices=4 / nr=0 / decimate=1 / interlaced=fake / bluray_compat=1 / constrained_intra=0 / bframes=3 / b_pyramid=1 / b_adapt=1 / b_bias=0 / direct=1 / weightb=1 / open_gop=1 / weightp=1 / keyint=25 / keyint_min=1 / scenecut=40 / intra_refresh=0 / rc_lookahead=25 / rc=crf / mbtree=1 / crf=23.0 / qcomp=0.60 / qpmin=0 / qpmax=69 / qpstep=4 / vbv_maxrate=40000 / vbv_bufsize=30000 / crf_max=0.0 / nal_hrd=vbr / ip_ratio=1.40 / aq=1:1.00
    Default : Yes
    Forced : No
    Color primaries : BT.709
    Transfer characteristics : BT.709
    Matrix coefficients : BT.709

    Audio
    ID : 2
    Format : AC-3
    Format/Info : Audio Coding 3
    Mode extension : CM (complete main)
    Format settings, Endianness : Big
    Codec ID : A_AC3
    Duration : 5mn 11s
    Bit rate mode : Constant
    Bit rate : 384 Kbps
    Channel(s) : 2 channels
    Channel positions : Front: L R
    Sampling rate : 48.0 KHz
    Bit depth : 16 bits
    Compression mode : Lossy
    Stream size : 14.3 MiB (9%)
    Default : Yes
    Forced : No






    [ DOWNLOAD ]


    [ arabloads ]

    Code:
    http://www.arabloads.com/nswb0m4dhpof/Jal-Sajni_1080p_Album_Boondh.mkv.html
    [ hugefiles ]

    Code:
    http://hugefiles.net/5h7kiqfr30fj
    [ filesflash ]

    Code:
    http://filesflash.com/8f1xeld3
    [ filesflash for indian users ]

    Code:
    http://filesflash:8001.com/8f1xeld3














  2. #2
    Senior Member www.desirulez.net
    Join Date
    Mar 2013
    Posts
    123

    Default

    Thank u so much budy....

 

 

Posting Permissions

  • You may not post new threads
  • You may not post replies
  • You may not post attachments
  • You may not edit your posts
  •