Results 1 to 1 of 1
  1. #1
    dR Rockers www.desirulez.net
    Join Date
    Aug 2011
    Posts
    5,859

    Cool Bhaag Milkha Bhaag (2013) - 1/3DVDScr - x264 - AC3 - [Team DUS]

    Follow us on Social Media












    Code:
    Year.............: 2013
    Sample...........: Sample
    Source: RUDOS
    Ripper...........: jnmjy
    
    General
    Format                                   : Matroska
    Format version                           : Version 2
    File size                                : 1.45 GiB
    Duration                                 : 3h 5mn
    Overall bit rate                         : 1 114 Kbps
    Encoded date                             : UTC 2013-07-16 15:25:28
    Writing application                      : mkvmerge v6.2.0 ('Promised Land') built on Apr 28 2013 12:22:01
    Writing library                          : libebml v1.3.0 + libmatroska v1.4.0
    
    Video
    ID                                       : 1
    Format                                   : AVC
    Format/Info                              : Advanced Video Codec
    Format profile                           : [email protected]
    Format settings, CABAC                   : Yes
    Format settings, ReFrames                : 4 frames
    Codec ID                                 : V_MPEG4/ISO/AVC
    Duration                                 : 3h 5mn
    Bit rate                                 : 920 Kbps
    Width                                    : 688 pixels
    Height                                   : 288 pixels
    Display aspect ratio                     : 2.40:1
    Frame rate mode                          : Constant
    Frame rate                               : 23.976 fps
    Color space                              : YUV
    Chroma subsampling                       : 4:2:0
    Bit depth                                : 8 bits
    Scan type                                : Progressive
    Bits/(Pixel*Frame)                       : 0.194
    Stream size                              : 1.17 GiB (81%)
    Writing library                          : x264 core 133 r2334 a3ac64b
    Language                                 : English
    Default                                  : Yes
    Forced                                   : No
    
    Audio
    ID                                       : 2
    Format                                   : AC-3
    Format/Info                              : Audio Coding 3
    Mode extension                           : CM (complete main)
    Format settings, Endianness              : Big
    Codec ID                                 : A_AC3
    Duration                                 : 3h 5mn
    Bit rate mode                            : Constant
    Bit rate                                 : 192 Kbps
    Channel(s)                               : 2 channels
    Channel positions                        : Front: L R
    Sampling rate                            : 48.0 KHz
    Bit depth                                : 16 bits
    Compression mode                         : Lossy
    Stream size                              : 255 MiB (17%)
    Default                                  : Yes
    Forced                                   : No

    !



    SINGLE DIRECT FAST LINKS
    Code:
    http://extabit.com/file/2dudctnvzjo2s/Bhaag.Milkha.Bhaag.{2013}.MC.DVDScr.Rip.x264.AC3.{Team.DUS}-jnmjy.mkv
    Code:
    http://lumfile.com/7j1mqn9jebqn/Bhaag.Milkha.Bhaag.{2013}.MC.DVDScr.Rip.x264.AC3.{Team.DUS}-jnmjy.mkv.html

 

 

Posting Permissions

  • You may not post new threads
  • You may not post replies
  • You may not post attachments
  • You may not edit your posts
  •