Results 1 to 2 of 2
  1. #1
    Super Member www.desirulez.net
    Join Date
    Apr 2013
    Posts
    209

    Default Janleva 555 [2012] - 1CD - WEBRip - Xvid - AC3 - eXclusive - seTul34

    Follow us on Social Media





    General
    Complete name : Janleva 555 [2012] - seTul34.avi
    Format : AVI
    Format/Info : Audio Video Interleave
    File size : 697 MiB
    Duration : 2h 16mn
    Overall bit rate : 713 Kbps

    Video
    ID : 0
    Format : MPEG-4 Visual
    Codec ID : FMP4
    Duration : 2h 16mn
    Bit rate : 623 Kbps
    Width : 640 pixels
    Height : 272 pixels
    Display aspect ratio : 2.35:1
    Frame rate : 25.000 fps
    Color space : YUV
    Chroma subsampling : 4:2:0
    Stream size : 609 MiB (87%)

    Audio
    ID : 1
    Format : AC-3
    Format/Info : Audio Coding 3
    Codec ID : 2000
    Duration : 2h 16mn
    Bit rate mode : Constant
    Bit rate : 80.0 Kbps
    Channel(s) : 2 channels
    Sampling rate : 44.1 KHz
    Compression mode : Lossy
    Stream size : 78.2 MiB (11%)



















    Code:
    http://rapidgator.net/file/d73db8344ba77cd712a9d6d6b1a2daa3/ifkjnlghkmf5.html
    Code:
    http://lumfile.com/7wwu8b166xje/ifkjnlghkmf5.html

  2. #2
    Super Member www.desirulez.net
    Join Date
    Apr 2013
    Posts
    209

    Default

    good

 

 

Posting Permissions

  • You may not post new threads
  • You may not post replies
  • You may not post attachments
  • You may not edit your posts
  •