Results 1 to 1 of 1
  1. #1
    Hot Member www.desirulez.net
    Join Date
    Feb 2013
    Posts
    1,015

    Cool Janleva 555 [2012] - 1CD - WEBRip - Xvid - AC3 - eXclusive - seTul34

    Follow us on Social Media









    General
    Complete name : Janleva 555 [2012] - seTul34.avi
    Format : AVI
    Format/Info : Audio Video Interleave
    File size : 697 MiB
    Duration : 2h 16mn
    Overall bit rate : 713 Kbps

    Video
    ID : 0
    Format : MPEG-4 Visual
    Codec ID : FMP4
    Duration : 2h 16mn
    Bit rate : 623 Kbps
    Width : 640 pixels
    Height : 272 pixels
    Display aspect ratio : 2.35:1
    Frame rate : 25.000 fps
    Color space : YUV
    Chroma subsampling : 4:2:0
    Stream size : 609 MiB (87%)

    Audio
    ID : 1
    Format : AC-3
    Format/Info : Audio Coding 3
    Codec ID : 2000
    Duration : 2h 16mn
    Bit rate mode : Constant
    Bit rate : 80.0 Kbps
    Channel(s) : 2 channels
    Sampling rate : 44.1 KHz
    Compression mode : Lossy
    Stream size : 78.2 MiB (11%)
















    [ sample ]

    Code:
    http://www.arabloads.com/5dap2cp7otww/SAMPLE_-_Janleva_555_[2012]_-_seTul34.avi.html

    [ DOWNLOAD ]


    [ arabloads ]

    Code:
    http://www.arabloads.com/6abj4mj47kqp/Janleva_555_[2012]_-_720p_-_1CD_-_WEBRip_-_Xvid_-_AC3_-_seTul34.avi.html
    [ hugefiles ]

    Code:
    http://hugefiles.net/ifkjnlghkmf5
    [ filesflash ]

    Code:
    http://filesflash.com/thv435hy
    [ filesflash for indian users ]

    Code:
    http://filesflash:8001.com/thv435hy
    [ speedshare ]

    Code:
    http://speedshare.eu/vlg1y9a7ej76/Janleva_555__5B2012_5D_-_720p_-_1CD_-_WEBRip_-_Xvid_-_AC3_-_seTul34.avi.html












 

 

Posting Permissions

  • You may not post new threads
  • You may not post replies
  • You may not post attachments
  • You may not edit your posts
  •