Results 1 to 1 of 1
  1. #1
    Hot Member www.desirulez.net
    Join Date
    Feb 2013
    Posts
    1,015

    Default Issaq (2013) (Hindi) SCamRip x264 MP3 350 MB [TMB]

    Follow us on Social Media









    Media Info -
    General
    Complete name : Issaq 2013 SCamRip x264 MP3 [TMB].avi
    Format : AVI
    Format/Info : Audio Video Interleave
    File size : 359 MiB
    Duration : 2h 10mn
    Overall bit rate : 384 Kbps
    Writing application : Lavf54.63.104

    Video
    Format : AVC
    Format/Info : Advanced Video Codec
    Format profile : [email protected]
    Format settings, CABAC : Yes
    Format settings, ReFrames : 1 frame
    Codec ID : H264
    Duration : 2h 10mn
    Bit rate : 115 Kbps
    Width : 384 pixels
    Height : 176 pixels
    Display aspect ratio : 2.2:1
    Frame rate mode : Variable
    Frame rate : 25.000 fps
    Color space : YUV
    Chroma subsampling : 4:2:0
    Bit depth : 8 bits
    Scan type : Progressive
    Bits/(Pixel*Frame) : 0.068
    Stream size : 107 MiB (30%)


    Audio
    Format : MPEG Audio
    Format version : Version 1
    Format profile : Layer 3
    Mode : Joint stereo
    Mode extension : MS Stereo
    Codec ID : 55
    Codec ID/Hint : MP3
    Duration : 2h 10mn
    Bit rate mode : Constant
    Bit rate : 256 Kbps
    Channel(s) : 2 channels
    Sampling rate : 48.0 KHz
    Compression mode : Lossy
    Stream size : 240 MiB (67%)
    Alignment : Aligned on interleaves
    Interleave, duration : 24 ms (0.60 video frame)
    Writing library : LAME3.99.5











    [ sample ]

    Code:
    http://www.arabloads.com/y99dnrkaej9k/Issaq_2013_SCamRip_x264_MP3_[TMB]_Sample.avi.html

    [ DOWNLOAD ]


    [ arabloads ]

    Code:
    http://www.arabloads.com/myu9nfr0mn3d/Issaq_2013_SCamRip_x264_MP3_[TMB].avi.html
    [ hugefiles ]

    Code:
    http://hugefiles.net/ijgstdmbm8ix
    [ filesflash ]

    Code:
    http://filesflash.com/wyzqq3gg
    [ filesflash for indian users ]

    Code:
    http://filesflash:8001.com/wyzqq3gg
    [ speedshare ]

    Code:
    http://speedshare.eu/5j2iv2wvarpx/Issaq_2013_SCamRip_x264_MP3_[TMB].avi.html












 

 

Posting Permissions

  • You may not post new threads
  • You may not post replies
  • You may not post attachments
  • You may not edit your posts
  •