Results 1 to 1 of 1
  1. #1
    Hot Member www.desirulez.net
    Join Date
    Feb 2013
    Posts
    1,015

    Cool Bajatey Raho (2013) (Hindi) SCamRip x264 MP3 300 MB [TMB]

    Follow us on Social Media











    Media Info -
    General
    Complete name : Bajatey Raho 2013 SCamRip x264 MP3 [TMB].avi
    Format : AVI
    Format/Info : Audio Video Interleave
    File size : 314 MiB
    Duration : 1h 33mn
    Overall bit rate : 473 Kbps
    Writing application : Lavf54.63.104

    Video
    Format : AVC
    Format/Info : Advanced Video Codec
    Format profile : [email protected]
    Format settings, CABAC : Yes
    Format settings, ReFrames : 1 frame
    Codec ID : H264
    Duration : 1h 33mn
    Bit rate : 203 Kbps
    Width : 384 pixels
    Height : 172 pixels
    Display aspect ratio : 2.25:1
    Frame rate mode : Variable
    Frame rate : 25.000 fps
    Color space : YUV
    Chroma subsampling : 4:2:0
    Bit depth : 8 bits
    Scan type : Progressive
    Bits/(Pixel*Frame) : 0.123
    Stream size : 136 MiB (43%)
    Writing library : x264 core 129


    Audio
    Format : MPEG Audio
    Format version : Version 1
    Format profile : Layer 3
    Mode : Joint stereo
    Codec ID : 55
    Codec ID/Hint : MP3
    Duration : 1h 33mn
    Bit rate mode : Constant
    Bit rate : 256 Kbps
    Channel(s) : 2 channels
    Sampling rate : 48.0 KHz
    Compression mode : Lossy
    Stream size : 170 MiB (54%)
    Alignment : Aligned on interleaves
    Interleave, duration : 24 ms (0.60 video frame)








    [ sample ]

    Code:
    http://www.arabloads.com/l8g7d8rczn62/Bajatey_Raho_2013_SCamRip_x264_MP3_[TMB]_Sample.avi.html

    [ DOWNLOAD ]


    [ arabloads ]

    Code:
    http://www.arabloads.com/zhc6m9we0llx/Bajatey_Raho_2013_SCamRip_x264_MP3_[TMB].avi.html
    [ hugefiles ]

    Code:
    http://hugefiles.net/rg1rm7zozh0j
    [ filesflash ]

    Code:
    http://filesflash.com/knkkucp4
    [ filesflash for indian users ]

    Code:
    http://filesflash:8001.com/knkkucp4
    [ speedshare ]

    Code:
    http://speedshare.eu/dm6or5bpo59y/Bajatey_Raho_2013_SCamRip_x264_MP3_[TMB].avi.html












 

 

Posting Permissions

  • You may not post new threads
  • You may not post replies
  • You may not post attachments
  • You may not edit your posts
  •