Results 1 to 1 of 1
  1. #1
    dR Rockers www.desirulez.net
    Join Date
    Aug 2011
    Posts
    5,859

    Cool Say Yes to Love (2012) - 720p - HDRip - x264 - AC36CH - E-Sub - TT eXclusive

    Follow us on Social Media












    Code:
    General
    Complete name                            : Say Yes to Love [2012].mkv
    Format                                   : Matroska
    Format version                           : Version 1
    File size                                : 2.04 GiB
    Duration                                 : 2h 0mn
    Overall bit rate                         : 2 428 Kbps
    Encoded date                             : UTC 2013-07-25 23:03:13
    Writing library                          : Teri-Maa-Ka-Doodh Software 
    
    Video
    ID                                       : 1
    Format                                   : AVC
    Format/Info                              : Advanced Video Codec
    Format profile                           : [email protected]
    Format settings, CABAC                   : No
    Format settings, ReFrames                : 1 frame
    Format settings, GOP                     : M=1, N=25
    Codec ID                                 : V_MPEG4/ISO/AVC
    Duration                                 : 2h 0mn
    Bit rate                                 : 2 060 Kbps
    Width                                    : 1 280 pixels
    Height                                   : 544 pixels
    Display aspect ratio                     : 16:9
    Original display aspect ratio            : 2.35:1
    Frame rate mode                          : Constant
    Frame rate                               : 23.976 fps
    Original frame rate                      : 23.000 fps
    Color space                              : YUV
    Chroma subsampling                       : 4:2:0
    Bit depth                                : 8 bits
    Scan type                                : Progressive
    Bits/(Pixel*Frame)                       : 0.123
    Stream size                              : 1.73 GiB (85%)
    Writing library                          : Î7bwâå‡    þÿÿÿµ©Yw¬¤Yw
    Default                                  : Yes
    Forced                                   : No
    
    Audio
    ID                                       : 2
    Format                                   : AC-3
    Format/Info                              : Audio Coding 3
    Mode extension                           : CM (complete main)
    Format settings, Endianness              : Big
    Codec ID                                 : A_AC3
    Duration                                 : 2h 0mn
    Bit rate mode                            : Constant
    Bit rate                                 : 320 Kbps
    Channel(s)                               : 6 channels
    Channel positions                        : Front: L C R, Side: L R, LFE
    Sampling rate                            : 48.0 KHz
    Bit depth                                : 16 bits
    Compression mode                         : Lossy
    Stream size                              : 275 MiB (13%)
    Default                                  : Yes
    Forced                                   : No









    SINGLE DIRECT FAST LINKS

    Code:
    http://extabit.com/file/2dudcssxkhf90/Say.Yes.to.Love.[2012].WEBRip.720p.x264.AC3.6CH.E-Sub.[*******].eXclusive.deep1007.mkv
    http://extabit.com/file/2dudcssxkgd8k/Say.Yes.to.Love.[2012].WEBRip.720p.x264.AC3.6CH.E-Sub.[*******].eXclusive.deep1007.srt

    Code:
    http://lumfile.com/l6gglpr6zony/Say.Yes.to.Love.[2012].WEBRip.720p.x264.AC3.6CH.E-Sub.[*******].eXclusive.deep1007.mkv.html
    http://lumfile.com/3u0qci1g32tv/Say.Yes.to.Love.[2012].WEBRip.720p.x264.AC3.6CH.E-Sub.[*******].eXclusive.deep1007.srt.html

 

 

Posting Permissions

  • You may not post new threads
  • You may not post replies
  • You may not post attachments
  • You may not edit your posts
  •