Results 1 to 1 of 1
  1. #1
    dR Rockers www.desirulez.net
    Join Date
    Aug 2011
    Posts
    5,859

    Cool Say Yes to Love (2012) - 700MB - 1CDRip - HDRip - XviD - MP3 - E-Sub - TT Xclusive

    Follow us on Social Media












    Say Yes to Love *2012*
    "WEBRip - 1CD - XviD - MP3 - E-Sub"
    ..: ******* ::..
    ..:: eXclusive - deep1007 ::..

    Code:
    General
    Complete name                            : Say Yes to Love [2012].avi
    Format                                   : AVI
    Format/Info                              : Audio Video Interleave
    File size                                : 699 MiB
    Duration                                 : 2h 0mn
    Overall bit rate mode                    : Variable
    Overall bit rate                         : 814 Kbps
    Writing application                      : MEncoder r33883
    Writing library                          : MPlayer
    
    Video
    ID                                       : 0
    Format                                   : MPEG-4 Visual
    Format profile                           : [email protected]
    Format settings, BVOP                    : No
    Format settings, QPel                    : No
    Format settings, GMC                     : No warppoints
    Format settings, Matrix                  : Default (H.263)
    Codec ID                                 : XVID
    Codec ID/Hint                            : XviD
    Duration                                 : 2h 0mn
    Source duration                          : 2h 0mn
    Bit rate                                 : 720 Kbps
    Width                                    : 640 pixels
    Height                                   : 272 pixels
    Display aspect ratio                     : 2.35:1
    Frame rate                               : 25.000 fps
    Color space                              : YUV
    Chroma subsampling                       : 4:2:0
    Bit depth                                : 8 bits
    Scan type                                : Progressive
    Compression mode                         : Lossy
    Bits/(Pixel*Frame)                       : 0.165
    Stream size                              : 619 MiB (88%)
    Writing library                          : XviD 63
    
    Audio
    ID                                       : 1
    Format                                   : MPEG Audio
    Format version                           : Version 1
    Format profile                           : Layer 3
    Mode                                     : Joint stereo
    Mode extension                           : MS Stereo
    Codec ID                                 : 55
    Codec ID/Hint                            : MP3
    Duration                                 : 2h 0mn
    Bit rate mode                            : Variable
    Bit rate                                 : 80.0 Kbps
    Channel(s)                               : 2 channels
    Sampling rate                            : 44.1 KHz
    Compression mode                         : Lossy
    Stream size                              : 70.0 MiB (10%)
    Alignment                                : Aligned on interleaves
    Interleave, duration                     : 26 ms (0.65 video frame)
    Interleave, preload duration             : 489 ms








    SINGLE DIRECT FAST LINKS
    Code:
    http://extabit.com/file/2dudcssxkhlms/Say.Yes.to.Love.[2012].WEBRip.1CD.XviD.MP3.E-Sub.[Telly.TV].eXclusive.deep1007.avi
    Code:
    http://lumfile.com/ydy86b8vk9um/Say.Yes.to.Love.[2012].WEBRip.1CD.XviD.MP3.E-Sub.[Telly.TV].eXclusive.deep1007.avi.html

 

 

Posting Permissions

  • You may not post new threads
  • You may not post replies
  • You may not post attachments
  • You may not edit your posts
  •