Results 1 to 1 of 1
  1. #1
    Hot Member www.desirulez.net
    Join Date
    Feb 2013
    Posts
    1,015

    Cool Issaq(2013) Untouched Scam - VoB- 500 MB -TMB

    Follow us on Social Media









    Media Info -
    Video
    ID : 224 (0xE0)
    Format : MPEG Video
    Format version : Version 2
    Format profile : [email protected]
    Format settings, BVOP : Yes
    Format settings, Matrix : Default
    Duration : 2h 10mn
    Bit rate mode : Variable
    Bit rate : 416 Kbps
    Maximum bit rate : 9 672 Kbps
    Width : 352 pixels
    Height : 288 pixels
    Display aspect ratio : 4:3
    Frame rate : 25.000 fps
    Standard : PAL
    Color space : YUV
    Chroma subsampling : 4:2:0
    Bit depth : 8 bits
    Scan type : Progressive
    Compression mode : Lossy
    Bits/(Pixel*Frame) : 0.164
    Stream size : 389 MiB (75%)

    Audio
    ID : 192 (0xC0)
    Format : MPEG Audio
    Format version : Version 1
    Format profile : Layer 2
    Duration : 2h 10mn
    Bit rate mode : Constant
    Bit rate : 128 Kbps
    Channel(s) : 2 channels
    Sampling rate : 48.0 KHz
    Compression mode : Lossy
    Stream size : 120 MiB (23%)






    [ DOWNLOAD ]


    [ arabloads ]

    Code:
    http://www.arabloads.com/8tq6wbclza10/Issaq(2013)_Untouched_Scam_[TMB].VOB.html
    [ hugefiles ]

    Code:
    http://hugefiles.net/ro06esyzcagd
    [ filesflash ]

    Code:
    http://filesflash.com/brdli9cf
    [ filesflash for indian users ]

    Code:
    http://filesflash:8001.com/brdli9cf
    [ speedshare ]

    Code:
    http://speedshare.eu/pa6qz2rfwdn8/Issaq(2013)_Untouched_Scam_[TMB].VOB.html












 

 

Posting Permissions

  • You may not post new threads
  • You may not post replies
  • You may not post attachments
  • You may not edit your posts
  •