Results 1 to 1 of 1
  1. #1

    Cool Say Yes to Love (2012) - WEBRip 1CD XviD MP3 E-Sub - [*******]

    Follow us on Social Media







    General
    Complete name : Say Yes to Love [2012].avi
    Format : AVI
    Format/Info : Audio Video Interleave
    File size : 699 MiB
    Duration : 2h 0mn
    Overall bit rate mode : Variable
    Overall bit rate : 814 Kbps
    Writing application : MEncoder r33883
    Writing library : MPlayer

    Video
    ID : 0
    Format : MPEG-4 Visual
    Format profile : [email protected]
    Format settings, BVOP : No
    Format settings, QPel : No
    Format settings, GMC : No warppoints
    Format settings, Matrix : Default (H.263)
    Codec ID : XVID
    Codec ID/Hint : XviD
    Duration : 2h 0mn
    Source duration : 2h 0mn
    Bit rate : 720 Kbps
    Width : 640 pixels
    Height : 272 pixels
    Display aspect ratio : 2.35:1
    Frame rate : 25.000 fps
    Color space : YUV
    Chroma subsampling : 4:2:0
    Bit depth : 8 bits
    Scan type : Progressive
    Compression mode : Lossy
    Bits/(Pixel*Frame) : 0.165
    Stream size : 619 MiB (88%)
    Writing library : XviD 63

    Audio
    ID : 1
    Format : MPEG Audio
    Format version : Version 1
    Format profile : Layer 3
    Mode : Joint stereo
    Mode extension : MS Stereo
    Codec ID : 55
    Codec ID/Hint : MP3
    Duration : 2h 0mn
    Bit rate mode : Variable
    Bit rate : 80.0 Kbps
    Channel(s) : 2 channels
    Sampling rate : 44.1 KHz
    Compression mode : Lossy
    Stream size : 70.0 MiB (10%)
    Alignment : Aligned on interleaves
    Interleave, duration : 26 ms (0.65 video frame)
    Interleave, preload duration : 489 ms







    Code:
    http://rapidgator.net/file/802d114d56c019f3794642d26791675c/Say_Yes_to_Love_[2012]_-_WEBRip_-_1CD_-_XviD_-_MP3_-_E-Sub_-_[*******]_-_eXclusive.avi.html
    
    http://ul.to/itn7u2g4
    
    https://ultramegabit.com/file/details/lge_5IIG4N0
    
    http://ryushare.com/4aab655a7bd6/Say_Yes_to_Love_[2012]_-_WEBRip_-_1CD_-_XviD_-_MP3_-_E-Sub_-_[*******]_-_eXclusive.avi

 

 

Posting Permissions

  • You may not post new threads
  • You may not post replies
  • You may not post attachments
  • You may not edit your posts
  •