Results 1 to 1 of 1
  1. #1
    Super Member www.desirulez.net
    Join Date
    Apr 2013
    Posts
    211

    Cool Aashiq Banaya Aapne (2005) HD - All Music Videos

    Follow us on Social Media





    Aashiq Banaya Aapne (2005) HD - All Music Videos





    General
    Complete name : Aashiq Banaya AapneAap Ki Kashish.avi
    Format : AVI
    Format/Info : Audio Video Interleave
    File size : 90.8 MiB
    Duration : 3mn 35s
    Overall bit rate : 3 531 Kbps
    Writing library : VirtualDub build 32839/release

    Video
    ID : 0
    Format : MPEG-4 Visual
    Format profile : [email protected]
    Format settings, BVOP : No
    Format settings, QPel : No
    Format settings, GMC : No warppoints
    Format settings, Matrix : Default (H.263)
    Codec ID : XVID
    Codec ID/Hint : XviD
    Duration : 3mn 35s
    Bit rate : 1 985 Kbps
    Width : 720 pixels
    Height : 304 pixels
    Display aspect ratio : 2.35:1
    Frame rate : 23.976 fps
    Color space : YUV
    Chroma subsampling : 4:2:0
    Bit depth : 8 bits
    Scan type : Progressive
    Bits/(Pixel*Frame) : 0.378
    Stream size : 51.0 MiB (56%)
    Writing library : XviD 1.3.0.dev55

    Audio
    ID : 1
    Format : PCM
    Format settings, Endianness : Little
    Format settings, Sign : Signed
    Codec ID : 1
    Codec ID/Hint : Microsoft
    Duration : 3mn 35s
    Bit rate mode : Constant
    Bit rate : 1 536 Kbps
    Channel(s) : 2 channels
    Sampling rate : 48.0 KHz
    Bit depth : 16 bits
    Stream size : 39.5 MiB (43%)
    Interleave, duration : 42 ms (1.00 video frame)
    Interleave, preload duration : 500 ms












    Code:
    http://www.arabloads.com/ykfm8o40ry5v/Mar_Jawan_Mit_Jawan.avi.html
    http://www.arabloads.com/x51eebkeevr4/Aap_Ki_Kashish.avi.html
    http://www.arabloads.com/psdqfdnhi5zl/Dillagi_Mein_Jo_Beet.avi.html
    http://www.arabloads.com/6gypivxlzbbv/Aashiq_Banaya_Aapne.avi.html

    Code:
    https://ultramegabit.com/file/details/CEeKPhLFFhc/Mar+Jawan+Mit+Jawan.avi
    https://ultramegabit.com/file/details/UHnd3TxssQE/Aap+Ki+Kashish.avi
    https://ultramegabit.com/file/details/AGrcjpTJLfU/Aashiq+Banaya+Aapne.avi
    https://ultramegabit.com/file/details/TEMu9gOYGzI/Dillagi+Mein+Jo+Beet.avi

    Code:
    http://speedshare.eu/k234q3c3790c/Mar_Jawan_Mit_Jawan.avi.html
    http://speedshare.eu/mgv7nft2pm5f/Aap_Ki_Kashish.avi.html
    http://speedshare.eu/8ojli0jgpjwu/Dillagi_Mein_Jo_Beet.avi.html
    http://speedshare.eu/wter8ebiku72/Aashiq_Banaya_Aapne.avi.html

 

 

Posting Permissions

  • You may not post new threads
  • You may not post replies
  • You may not post attachments
  • You may not edit your posts
  •