Results 1 to 1 of 1
  1. #1
    Hot Member www.desirulez.net
    Join Date
    Feb 2013
    Posts
    1,015

    Cool Ramaiya Vastavaiya (2013)(Audio Cleaned) 1CD Xvid EU Dvd Scr -800MB

    Follow us on Social Media










    Format : AVI
    Format/Info : Audio Video Interleave
    File size : 800 MiB
    Duration : 2h 23mn
    Overall bit rate : 777 Kbps
    Writing application : Lavf52.39.1
    Writing library : VirtualDub build 32842/release

    Video
    ID : 0
    Format : MPEG-4 Visual
    Format profile : Advanced [email protected]
    Format settings, BVOP : 2
    Format settings, QPel : No
    Format settings, GMC : No warppoints
    Format settings, Matrix : Default (H.263)
    Muxing mode : Packed bitstream
    Codec ID : XVID
    Codec ID/Hint : XviD
    Duration : 2h 23mn
    Bit rate : 700 Kbps
    Width : 640 pixels
    Height : 272 pixels
    Display aspect ratio : 2.35:1
    Frame rate : 25.000 fps
    Color space : YUV
    Chroma subsampling : 4:2:0
    Bit depth : 8 bits
    Scan type : Progressive
    Compression mode : Lossy
    Bits/(Pixel*Frame) : 0.161
    Stream size : 721 MiB (90%)
    Writing library : XviD 64

    Audio
    ID : 1
    Format : MPEG Audio
    Format version : Version 1
    Format profile : Layer 3
    Mode : Joint stereo
    Mode extension : MS Stereo
    Codec ID : 55
    Codec ID/Hint : MP3
    Duration : 2h 23mn
    Bit rate mode : Constant
    Bit rate : 64.0 Kbps
    Channel(s) : 2 channels
    Sampling rate : 48.0 KHz
    Compression mode : Lossy
    Stream size : 65.9 MiB (8%)
    Alignment : Aligned on interleaves
    Interleave, duration : 24 ms (0.60 video frame)
    Interleave, preload duration : 504 ms
















    [ sample ]

    Code:
    http://www.multiupload.nl/B526QO92H9

    [ DOWNLOAD ]


    [ arabloads ]

    Code:
    http://www.arabloads.com/nu79g48qpzsk/Ramaiya_Vastavaiya_(2013)_1CD_EU_DVD_SCR_AUDIO_CLEANED.avi.html
    [ hugefiles ]

    Code:
    http://hugefiles.net/vg1m39s20olw
    [ filesflash ]

    Code:
    http://filesflash.com/nthp6p50
    [ filesflash for indian users ]

    Code:
    http://filesflash:8001.com/nthp6p50
    [ speedshare ]

    Code:
    http://speedshare.eu/glar0h5bxoz2/Ramaiya_Vastavaiya_(2013)_1CD_EU_DVD_SCR_AUDIO_CLEANED.avi.html












 

 

Posting Permissions

  • You may not post new threads
  • You may not post replies
  • You may not post attachments
  • You may not edit your posts
  •