Results 1 to 1 of 1
  1. #1
    dR Rockers www.desirulez.net
    Join Date
    Aug 2011
    Posts
    5,859

    Cool D-DAy (2013) (New Source) - 6G - UNTOUCHED - DVDSCR - TT

    Follow us on Social Media












    Code:
    Complete name : D-DAY DVDSCR new source untouched
    Format : MPEG-PS
    Duration : 2h 28mn
    Overall bit rate mode : Variable
    Overall bit rate : 6 557 Kbps
    
    Video
    ID : 224 (0xE0)
    Format : MPEG Video
    Format version : Version 2
    Format profile : [email protected]
    Format settings, BVOP : Yes
    Format settings, Matrix : Default
    Format settings, GOP : M=3, N=12
    Duration : 2h 28mn
    Bit rate mode : Variable
    Bit rate : 6 362 Kbps
    Maximum bit rate : 9 500 Kbps
    Width : 720 pixels
    Height : 576 pixels
    Display aspect ratio : 16:9
    Frame rate : 25.000 fps
    Standard : PAL
    Color space : YUV
    Chroma subsampling : 4:2:0
    Bit depth : 8 bits
    Scan type : Interlaced
    Scan order : Bottom Field First
    Compression mode : Lossy
    Bits/(Pixel*Frame) : 0.614
    Time code of first frame : 00:00:00:00
    Time code source : Group of pictures header
    Stream size : 6.62 GiB (97%)
    
    Audio
    ID : 192 (0xC0)
    Format : MPEG Audio
    Format version : Version 1
    Format profile : Layer 2
    Duration : 2h 28mn
    Bit rate mode : Constant
    Bit rate : 64.0 Kbps
    Channel(s) : 2 channels
    Sampling rate : 48.0 KHz
    Compression mode : Lossy
    Stream size : 68.2 MiB (1%)

    SINGLE DIRECT FAST LINKS

    Code:
    http://extabit.com/file/2dudcg8axpbd6/D-DAY.(2013).DVDSCR.New.Source.Untouched.rar
    Code:
    http://lumfile.com/pbc4cp6z9i9d/D-DAY.(2013).DVDSCR.New.Source.Untouched.rar.html

    1GB LINKS


    Code:
    http://extabit.com/file/2dudcg8ayc86i/D-DAY.(2013).DVDSCR.New.Source.Untouched.part1.rar
    http://extabit.com/file/2dudcg8aybynu/D-DAY.(2013).DVDSCR.New.Source.Untouched.part2.rar
    http://extabit.com/file/2dudcg8ayc88q/D-DAY.(2013).DVDSCR.New.Source.Untouched.part3.rar
    http://extabit.com/file/2dudcg8ayc1sa/D-DAY.(2013).DVDSCR.New.Source.Untouched.part4.rar
    http://extabit.com/file/2dudcg8ayc87u/D-DAY.(2013).DVDSCR.New.Source.Untouched.part5.rar
    http://extabit.com/file/2dudcg8ayc89m/D-DAY.(2013).DVDSCR.New.Source.Untouched.part6.rar


    Code:
    http://lumfile.com/g4a3glzk3gwb/D-DAY.(2013).DVDSCR.New.Source.Untouched.part1.rar.html
    http://lumfile.com/ukz0pwxiceuy/D-DAY.(2013).DVDSCR.New.Source.Untouched.part2.rar.html
    http://lumfile.com/7eo6z8f1v44s/D-DAY.(2013).DVDSCR.New.Source.Untouched.part3.rar.html
    http://lumfile.com/gvfw4mu9108x/D-DAY.(2013).DVDSCR.New.Source.Untouched.part4.rar.html
    http://lumfile.com/gyh06kbcsamh/D-DAY.(2013).DVDSCR.New.Source.Untouched.part5.rar.html
    http://lumfile.com/s3a2yx2vj0bx/D-DAY.(2013).DVDSCR.New.Source.Untouched.part6.rar.html


 

 

Posting Permissions

  • You may not post new threads
  • You may not post replies
  • You may not post attachments
  • You may not edit your posts
  •