Results 1 to 1 of 1
  1. #1
    dR Rockers www.desirulez.net
    Join Date
    Aug 2011
    Posts
    5,859

    Cool D Day (2013) - 1CD - DVDScreener - XviD - Mp3 - NYaD

    Follow us on Social Media












    Code:
    Format : AVI
    Format/Info : Audio Video Interleave
    File size : 684 MiB
    Duration : 2h 28mn
    Overall bit rate : 642 Kbps
    Writing application : Lavf52.39.1
    Writing library : VirtualDub build 32842/release
    
    Video
    ID : 0
    Format : MPEG-4 Visual
    Format profile : Advanced [email protected]
    Format settings, BVOP : 2
    Format settings, QPel : No
    Format settings, GMC : No warppoints
    Format settings, Matrix : Default (H.263)
    Muxing mode : Packed bitstream
    Codec ID : XVID
    Codec ID/Hint : XviD
    Duration : 2h 28mn
    Bit rate : 565 Kbps
    Width : 640 pixels
    Height : 272 pixels
    Display aspect ratio : 2.35:1
    Frame rate : 25.000 fps
    Color space : YUV
    Chroma subsampling : 4:2:0
    Bit depth : 8 bits
    Scan type : Progressive
    Compression mode : Lossy
    Bits/(Pixel*Frame) : 0.130
    Stream size : 602 MiB (88%)
    Writing library : XviD 64
    
    Audio
    ID : 1
    Format : MPEG Audio
    Format version : Version 1
    Format profile : Layer 3
    Mode : Joint stereo
    Mode extension : MS Stereo
    Codec ID : 55
    Codec ID/Hint : MP3
    Duration : 2h 28mn
    Bit rate mode : Constant
    Bit rate : 64.0 Kbps
    Channel(s) : 2 channels
    Sampling rate : 48.0 KHz
    Compression mode : Lossy
    Stream size : 68.2 MiB (10%)
    Alignment : Aligned on interleaves
    Interleave, duration : 24 ms (0.60 video frame)
    Interleave, preload duration : 504 ms














    SINGLE DIRECT FAST LINKS

    Code:
    http://extabit.com/file/28x2nmnvleauo/D.Day.2013.1CD.Dvd.Scr.Rip.XviD.Mp3.NyAD.avi
    Code:
    http://lumfile.com/xllzhblviwps/D.Day.2013.1CD.Dvd.Scr.Rip.XviD.Mp3.NyAD.avi.html

 

 

Posting Permissions

  • You may not post new threads
  • You may not post replies
  • You may not post attachments
  • You may not edit your posts
  •