Results 1 to 1 of 1
  1. #1
    Hot Member www.desirulez.net
    Join Date
    Sep 2009
    Posts
    1,215

    Thumbs up D-Day [2013] - DVDSCR - 1CD - XviD - MP3 - ******* - eXclusive - deep1007

    Follow us on Social Media







    D-DAY *2013*
    "DVDSCR - 1CD - XviD - MP3 - *******"
    ..: ******* ::..
    ..:: eXclusive - deep1007 ::..



    Media Info
    Code:
    General
    Complete name                            : D-Day [2013].avi
    Format                                   : AVI
    Format/Info                              : Audio Video Interleave
    File size                                : 676 MiB
    Duration                                 : 2h 28mn
    Overall bit rate mode                    : Variable
    Overall bit rate                         : 635 Kbps
    Writing application                      : MEncoder r33883
    Writing library                          : MPlayer
    
    Video
    ID                                       : 0
    Format                                   : MPEG-4 Visual
    Format profile                           : [email protected]
    Format settings, BVOP                    : No
    Format settings, QPel                    : No
    Format settings, GMC                     : No warppoints
    Format settings, Matrix                  : Default (H.263)
    Codec ID                                 : XVID
    Codec ID/Hint                            : XviD
    Duration                                 : 2h 28mn
    Bit rate                                 : 560 Kbps
    Width                                    : 640 pixels
    Height                                   : 272 pixels
    Display aspect ratio                     : 2.35:1
    Frame rate                               : 24.000 fps
    Color space                              : YUV
    Chroma subsampling                       : 4:2:0
    Bit depth                                : 8 bits
    Scan type                                : Progressive
    Compression mode                         : Lossy
    Bits/(Pixel*Frame)                       : 0.134
    Stream size                              : 596 MiB (88%)
    Writing library                          : XviD 63
    
    Audio
    ID                                       : 1
    Format                                   : MPEG Audio
    Format version                           : Version 1
    Format profile                           : Layer 3
    Mode                                     : Joint stereo
    Mode extension                           : MS Stereo
    Codec ID                                 : 55
    Codec ID/Hint                            : MP3
    Duration                                 : 2h 28mn
    Bit rate mode                            : Variable
    Bit rate                                 : 64.0 Kbps
    Channel(s)                               : 2 channels
    Sampling rate                            : 44.1 KHz
    Compression mode                         : Lossy
    Stream size                              : 67.3 MiB (10%)
    Alignment                                : Aligned on interleaves
    Interleave, duration                     : 26 ms (0.63 video frame)
    Interleave, preload duration             : 520 ms
    Screenshots









    ==================================
    SAMPLE
    ==================================

    All Credits Goes To : Team ******* -=: deep1007 :=-

    Code:
    https://fileparadox.in/wags0hiq8bi4/D-Day_[2013]_-_DVDSCR_-_1CD_-_XviD_-_MP3_-_*******_-_eXclusive_-_deep1007.rar
    
    http://junocloud.me/70s3gmd965jf/D-Day__2013__-_DVDSCR_-_1CD_-_XviD_-_MP3_-_*******_-_eXclusive_-_deep1007.rar
    
    http://akafile.com/l5p51awrhnjj
    
    http://ul.to/lflcsa2f
    
    https://www.oteupload.com/zu0ldq3tt3vs/D-Day__2013__-_DVDSCR_-_1CD_-_XviD_-_MP3_-_*******_-_eXclusive_-_deep1007.rar.html
    
    http://rapidgator.net/file/c6e2455e7526d8739d6bdd5a0957a9bb/D-Day_[2013]_-_DVDSCR_-_1CD_-_XviD_-_MP3_-_*******_-_eXclusive_-_deep1007.rar.html

 

 

Posting Permissions

  • You may not post new threads
  • You may not post replies
  • You may not post attachments
  • You may not edit your posts
  •