Results 1 to 1 of 1
  1. #1

    Cool D-Day (2013) - Untouched - DvdScr - MPEG - AF

    Follow us on Social Media







    Format : MPEG-PS
    File size : 1.95 GiB
    Duration : 2h 28mn
    Overall bit rate mode : Variable
    Overall bit rate : 1 870 Kbps
    Writing library : encoded by TMPGEnc 4.0 XPress Version. 4.7.4.299

    Video
    ID : 224 (0xE0)
    Format : MPEG Video
    Format version : Version 2
    Format profile : [email protected]
    Format settings, BVOP : Yes
    Format settings, Matrix : Custom
    Format settings, GOP : M=3, N=18
    Duration : 2h 28mn
    Bit rate mode : Variable
    Bit rate : 1 781 Kbps
    Width : 720 pixels
    Height : 480 pixels
    Display aspect ratio : 16:9
    Frame rate : 25.000 fps
    Standard : PAL
    Color space : YUV
    Chroma subsampling : 4:2:0
    Bit depth : 8 bits
    Scan type : Progressive
    Compression mode : Lossy
    Bits/(Pixel*Frame) : 0.206
    Time code of first frame : 00:00:00:00
    Time code source : Group of pictures header
    Stream size : 1.84 GiB (95%)
    Writing library : TMPGEnc XPress 4.7.4.299
    Color primaries : BT.601 PAL
    Transfer characteristics : BT.470 System B, BT.470 System G
    Matrix coefficients : BT.601

    Audio
    ID : 192 (0xC0)
    Format : MPEG Audio
    Format version : Version 1
    Format profile : Layer 2
    Duration : 2h 28mn
    Bit rate mode : Constant
    Bit rate : 64.0 Kbps
    Channel(s) : 2 channels
    Sampling rate : 48.0 KHz
    Compression mode : Lossy
    Stream size : 68.2 MiB (3%)
    Code:
    http://rapidgator.net/file/56edaf3b089fa2852b3b725a0bf066d8/D_Day_Untouched_DVD_Scr.mpg.html
    
    http://ul.to/ht7llr0f
    
    http://www.filefactory.com/file/46oc521ib297/n/D_Day_Untouched_DVD_Scr_mpg

 

 

Posting Permissions

  • You may not post new threads
  • You may not post replies
  • You may not post attachments
  • You may not edit your posts
  •