Results 1 to 1 of 1
  1. #1
    Hot Member www.desirulez.net
    Join Date
    Feb 2013
    Posts
    1,015

    Smile Lakeer (2004) 1GB XViD{ExD-XMR}(Reloaded)

    Follow us on Social Media









    Format : AVI
    Format/Info : Audio Video Interleave
    File size : 1 020 MiB
    Duration : 2h 48mn
    Overall bit rate : 844 Kbps
    Writing application : VirtualDubMod 1.5.10.2 (build 2542/release)
    Writing library : VirtualDubMod build 2542/release

    Video
    ID : 0
    Format : MPEG-4 Visual
    Format profile : Advanced [email protected]
    Format settings, BVOP : 2
    Format settings, QPel : Yes
    Format settings, GMC : No warppoints
    Format settings, Matrix : Default (MPEG)
    Muxing mode : Packed bitstream
    Codec ID : XVID
    Codec ID/Hint : XviD
    Duration : 2h 48mn
    Bit rate : 755 Kbps
    Width : 624 pixels
    Height : 272 pixels
    Display aspect ratio : 2.25:1
    Frame rate : 23.976 fps
    Color space : YUV
    Chroma subsampling : 4:2:0
    Bit depth : 8 bits
    Scan type : Progressive
    Compression mode : Lossy
    Bits/(Pixel*Frame) : 0.185
    Stream size : 912 MiB (89%)
    Writing library : XviD 1.2.1 (UTC 2008-12-04)

    Audio
    ID : 1
    Format : MPEG Audio
    Format version : Version 1
    Format profile : Layer 3
    Mode : Joint stereo
    Codec ID : 55
    Codec ID/Hint : MP3
    Duration : 2h 48mn
    Bit rate mode : Constant
    Bit rate : 80.0 Kbps
    Channel(s) : 2 channels
    Sampling rate : 32.0 KHz
    Compression mode : Lossy
    Stream size : 96.6 MiB (9%)
    Alignment : Aligned on interleaves
    Interleave, duration : 42 ms (1.00 video frame)
    Interleave, preload duration : 504 ms
    Writing library : LAME3.98r

    Ripper -=Rangeela=-












    [ DOWNLOAD ]


    [ arabloads ]

    Code:
    http://www.arabloads.com/35egme0dbimh/Lakeer_(2004)_ExD-XMR.avi.html
    [ hugefiles ]

    Code:
    http://hugefiles.net/e9mpo91tjzk4
    [ filesflash ]

    Code:
    http://filesflash.com/q0mla1e8
    [ filesflash for indian users ]

    Code:
    http://filesflash:8001.com/q0mla1e8
    [ speedshare ]

    Code:
    http://speedshare.eu/hubdaq7m6bci/Lakeer_(2004)_ExD-XMR.avi.html












 

 

Posting Permissions

  • You may not post new threads
  • You may not post replies
  • You may not post attachments
  • You may not edit your posts
  •