Results 1 to 1 of 1
  1. #1
    dR Rockers www.desirulez.net
    Join Date
    Jun 2011
    Posts
    2,793

    Thumbs up Auraangzeb2013- BRRip 720p x264 Hindi ESubs - ViZNU 887Mb

    Follow us on Social Media








    Format : MPEG-4
    File size : 887 MiB
    Duration : 2h 17mn
    Overall bit rate : 902 Kbps
    Source : 720p.BluRay-DDR

    Video
    Format : AVC
    Bit rate : 819 Kbps
    Width : 1 280 pixels
    Height : 544 pixels
    Display aspect ratio : 2.35:1
    Frame rate mode : Constant
    Frame rate : 24.000 fps
    Stream size : 805 MiB (91%)
    Writing library : x264 core 130 r2273

    Audio
    Format : AAC
    Bit rate mode : Variable
    Bit rate : 79.9 Kbps
    Channel(s) : 2 channels
    Channel positions : Front: L R
    Sampling rate : 48.0 KHz
    Stream size : 78.5 MiB (9%)
    Language : Hindi

    Subtitle : Yes(English)

    NOTE : Encoded using revolutionary 10bit encoding, which enables us to provide you more crispier
    and sharper images at small sizes, just make sure you follow our instructions without a fault.
    Recommend to you to use latest version of VLC player. Install K-Lite Codec Pack or shark007 codecs
    in case of any kind of problem in playback (For non-VLC Media Player users). Alternatively, install
    Core AVC codecs, the fastest decoder that there is coupled with Community Center Codec Pack and play
    on Windows Media Player Classic.












    (Resume Support/No Waiting)
    Code:
    http://www.queenshare.com/91t4d70g4vob/Arngzbbr720.mp4

    (Resume Support)
    Code:
    http://www.arabloads.com/x9kh6q5d9hc4/Arngzbbr720.mp4.html

 

 

Posting Permissions

  • You may not post new threads
  • You may not post replies
  • You may not post attachments
  • You may not edit your posts
  •