Results 1 to 1 of 1
  1. #1
    Hot Member www.desirulez.net
    Join Date
    Feb 2013
    Posts
    1,015

    Smile Yamla Pagla Deewana 2 [2013] - DVDRip - x264 - AC3 - Esub - [400 MB] - seTul34

    Follow us on Social Media












    eneral
    Complete name : yamla pagla Deewana 2 - seTul34.mkv
    Format : Matroska
    File size : 411 MiB
    Duration : 2h 34mn
    Overall bit rate : 373 Kbps

    Video
    ID : 1
    Format : AVC
    Format/Info : Advanced Video Codec
    Codec ID : V_MPEG4/ISO/AVC
    Duration : 2h 34mn
    Bit rate : 262 Kbps
    Width : 640 pixels
    Height : 272 pixels
    Display aspect ratio : 2.35:1
    Frame rate mode : Constant
    Frame rate : 29.970 fps
    Stream size : 297 MiB (72%)

    Audio
    ID : 2
    Format : AC-3
    Format/Info : Audio Coding 3
    Codec ID : A_AC3
    Duration : 2h 34mn
    Bit rate mode : Constant
    Bit rate : 96.0 Kbps
    Channel(s) : 2 channels
    Stream size : 106 MiB (26%)
    Language : Hindi

    Text
    ID : 3
    Format : VobSub
    Codec ID : S_VOBSUB
    Language : English

    Chapters : YES





    [ sample ]

    Code:
    http://www.arabloads.com/xla56r9lhfv9/SAMPLE_-_Yamla_Pagla_Deewana_2_[2013]_-_seTul34.mkv.html

    [ DOWNLOAD ]


    [ arabloads ]

    Code:
    http://www.arabloads.com/xptnld8qomgz/Yamla_Pagla_Deewana_2_[2013]_-_DVDRip_-_x264_-_AC3_-_Esub_-_[400_MB]_-_seTul34.mkv.html
    [ hugefiles ]

    Code:
    http://hugefiles.net/ghrrv52wgx5o
    [ filesflash ]

    Code:
    http://filesflash.com/uwdt8ek1
    [ filesflash for indian users ]

    Code:
    http://filesflash:8001.com/uwdt8ek1














 

 

Posting Permissions

  • You may not post new threads
  • You may not post replies
  • You may not post attachments
  • You may not edit your posts
  •