Results 1 to 1 of 1
  1. #1
    Hot Member www.desirulez.net
    Join Date
    Feb 2013
    Posts
    1,015

    Smile Janam Janam Ki Meli Chadar (Super Hit Play) 2009

    Follow us on Social Media





    Janam Janam Ki Meli Chadar (Super Hit Play) 2009

    CAST

    Sohail Ahmed, Hanan Butt, Aasha Ch, Amanat Chan, Chakori, Sardar Kamal, Akram Udas, Payal Ch, Jawad Waseem, Dardana Rehman, Jabar Khan, Hassan Murad

    Year of Release
    2009
    Director
    Afzaal Ahmed
    Producer
    Ch. Zulifqar


    INFO

    Video
    ID : 0
    Format : MPEG-4 Visual
    Format profile : [email protected]
    Format settings, BVOP : No
    Format settings, QPel : No
    Format settings, GMC : No warppoints
    Format settings, Matrix : Default (H.263)
    Codec ID : XVID
    Codec ID/Hint : XviD
    Duration : 2h 33mn
    Bit rate : 1 061 Kbps
    Width : 1 280 pixels
    Height : 720 pixels
    Display aspect ratio : 16:9
    Frame rate : 29.970 fps
    Color space : YUV
    Chroma subsampling : 4:2:0
    Bit depth : 8 bits
    Scan type : Progressive
    Compression mode : Lossy
    Bits/(Pixel*Frame) : 0.038
    Stream size : 1.14 GiB (88%)
    Writing library : Lavc52.66.0


    Audio
    ID : 1
    Format : MPEG Audio
    Format version : Version 1
    Format profile : Layer 3
    Mode : Joint stereo
    Mode extension : MS Stereo
    Codec ID : 55
    Codec ID/Hint : MP3
    Duration : 2h 33mn
    Bit rate mode : Constant
    Bit rate : 128 Kbps
    Channel(s) : 2 channels
    Sampling rate : 44.1 KHz
    Compression mode : Lossy
    Stream size : 141 MiB (11%)
    Alignment : Aligned on interleaves
    Interleave, duration : 26 ms (0.78 video frame)
    Interleave, preload duration : 522 ms














    [ DOWNLOAD ]


    [ arabloads ]

    Code:
    http://www.arabloads.com/b1qvk0p41hj0/Janam_Janam_Ki_Meli_Chadar_2009_(Full_Comedy_Stage_Play).avi.html
    [ hugefiles ]

    Code:
    http://hugefiles.net/kl95399k0wxi
    [ speedshare ]

    Code:
    http://speedshare.eu/j0j0rpcytsn6/Janam_Janam_Ki_Meli_Chadar_2009_(Full_Comedy_Stage_Play).avi.html













 

 

Posting Permissions

  • You may not post new threads
  • You may not post replies
  • You may not post attachments
  • You may not edit your posts
  •