Results 1 to 2 of 2
  1. #1
    Hot Member www.desirulez.net
    Join Date
    Feb 2013
    Posts
    1,015

    Smile Jatts In Golmaal (2013) DVDRip - XviD - 1CD - [DDR-Exclusive]

    Follow us on Social Media










    ---------------------------------------------------------------------------------------------------------------------------------------
    Movie Info
    ---------------------------------------------------------------------------------------------------------------------------------------

    Movie Name : Jatts In Golmaal
    Starring : Aarya Babbar, Sameksha Singh, Gurpreet Ghuggi, Jaswinder Bhalla, Binnu Dhillon, B. N. Sharma
    Directed : Ksshitij Chaudhary
    Movie Release Date : 2013
    Ripper : AnMoL
    Source : DVD9 My Own Collection
    Audio : Punjabi
    Subtitle : None

    ---------------------------------------------------------------------------------------------------------------------------------------
    Tech Info
    ---------------------------------------------------------------------------------------------------------------------------------------

    Format : AVI
    Format/Info : Audio Video Interleave
    File size : 696 MiB
    Duration : 2h 10mn
    Overall bit rate : 744 Kbps

    Video
    Codec ID : XVID
    Codec ID/Hint : XviD
    Duration : 2h 10mn
    Bit rate : 655 Kbps
    Width : 656 pixels
    Height : 272 pixels
    Display aspect ratio : 2.40:1
    Frame rate : 23.976 fps
    Color space : YUV
    Chroma subsampling : 4:2:0
    Bit depth : 8 bits
    Scan type : Progressive
    Compression mode : Lossy
    Bits/(Pixel*Frame) : 0.153
    Stream size : 612 MiB (88%)

    Audio
    Format : MPEG Audio
    Format version : Version 1
    Format profile : Layer 3
    Mode : Joint stereo
    Mode extension : MS Stereo
    Codec ID : 55
    Codec ID/Hint : MP3
    Duration : 2h 10mn
    Bit rate mode : Constant
    Bit rate : 80.0 Kbps
    Channel(s) : 2 channels
    Sampling rate : 32.0 KHz
    Compression mode : Lossy
    Stream size : 74.8 MiB (11%)


    ---------------------------------------------------------------------------------------------------------------------------------------
    Screen Shot
    ---------------------------------------------------------------------------------------------------------------------------------------










    [ sample ]

    Code:
    http://www.arabloads.com/exo2qfx1l0cq/Sample_Gatts_In_Golmaal_1CD.avi.html

    [ DOWNLOAD ]


    [ arabloads ]

    Code:
    http://www.arabloads.com/iljkr8e88zo4/Jatts_In_Golmaal_(2013)_DVDRip_-_XviD_-_1CD_-_Esub_-_[DDR-Exclusive].avi.html
    [ hugefiles ]

    Code:
    http://hugefiles.net/nfz1tmq7y1vu
    [ filesflash ]

    Code:
    http://filesflash.com/rvuay6yp
    [ filesflash for indian users ]

    Code:
    http://filesflash:8001.com/rvuay6yp
    [ speedshare ]

    Code:
    http://speedshare.eu/8h5cagsviwsz/Jatts_In_Golmaal_(2013)_DVDRip_-_XviD_-_1CD_-_Esub_-_[DDR-Exclusive].avi.html












  2. #2
    Super Member www.desirulez.net
    Join Date
    Apr 2013
    Posts
    209

    Default good movie

    thanx for good movie

 

 

Posting Permissions

  • You may not post new threads
  • You may not post replies
  • You may not post attachments
  • You may not edit your posts
  •