Results 1 to 1 of 1
  1. #1
    Hot Member www.desirulez.net
    Join Date
    Feb 2013
    Posts
    1,015

    Smile Lucky Di Unlucky Story (2013) DVDRip - XviD - 1CD - Esub - [DDR-Exclusive]

    Follow us on Social Media











    ---------------------------------------------------------------------------------------------------------------------------------------
    Movie Info
    ---------------------------------------------------------------------------------------------------------------------------------------

    Movie Name : Lucky Di Unlucky Story
    Starring : Gippy Grewal, Binnu Dhillon, Jaswinder Bhalla, Gurpreet Ghuggi, Surveen Chawla, Jackie Shroff
    Directed : Smeep Kang
    Producer : Gurfateh Films & Sippy Grewal Productions
    Movie Release Date : 2013
    Ripper : AnMoL
    Source : DVD9 My Own Collection
    Audio : Punjabi
    Subtitle : English

    ---------------------------------------------------------------------------------------------------------------------------------------
    Tech Info
    ---------------------------------------------------------------------------------------------------------------------------------------

    Format : AVI
    Format/Info : Audio Video Interleave
    File size : 694 MiB
    Duration : 1h 57mn
    Overall bit rate : 826 Kbps

    Video
    Codec ID : XVID
    Codec ID/Hint : XviD
    Duration : 1h 57mn
    Bit rate : 740 Kbps
    Width : 640 pixels
    Height : 272 pixels
    Display aspect ratio : 2.35:1
    Frame rate : 23.976 fps
    Color space : YUV
    Chroma subsampling : 4:2:0
    Bit depth : 8 bits
    Scan type : Progressive
    Compression mode : Lossy
    Bits/(Pixel*Frame) : 0.177
    Stream size : 622 MiB (90%)
    Writing library : XviD 1.2.1 (UTC 2008-12-04)

    Audio
    Format : MPEG Audio
    Format version : Version 1
    Format profile : Layer 3
    Mode : Joint stereo
    Mode extension : MS Stereo
    Codec ID : 55
    Codec ID/Hint : MP3
    Duration : 1h 57mn
    Bit rate mode : Constant
    Bit rate : 80.0 Kbps
    Channel(s) : 2 channels
    Sampling rate : 32.0 KHz
    Compression mode : Lossy
    Stream size : 67.1 MiB (10%)

    ---------------------------------------------------------------------------------------------------------------------------------------
    Screen Shot
    ---------------------------------------------------------------------------------------------------------------------------------------













    [ subtitle ]

    Code:
    http://www.arabloads.com/jyaaavpaj6tc/Lucky_Di_Unlucky_Story_(2013)_DVDRip_-_XviD_-_1CD_-_Esub_-_[DDR-Exclusive].srt.html
    [ sample ]

    Code:
    http://www.arabloads.com/nwjng3ppkr7o/Sample_Lucky_1_cd_rip.avi.html
    [ DOWNLOAD ]


    [ arabloads ]

    Code:
    http://www.arabloads.com/h62ghnuck353/Lucky_Di_Unlucky_Story_(2013)_DVDRip_-_XviD_-_1CD_-_Esub_-_[DDR-Exclusive].avi.html
    [ hugefiles ]

    Code:
    http://hugefiles.net/hx37nlqq0isz
    [ filesflash ]

    Code:
    http://filesflash.com/s1to9lq1
    [ filesflash for indian users ]

    Code:
    http://filesflash:8001.com/s1to9lq1
    [ speedshare ]

    Code:
    http://speedshare.eu/r2bbkxsk5pvg/Lucky_Di_Unlucky_Story_(2013)_DVDRip_-_XviD_-_1CD_-_Esub_-_[DDR-Exclusive].avi.html












 

 

Posting Permissions

  • You may not post new threads
  • You may not post replies
  • You may not post attachments
  • You may not edit your posts
  •