Results 1 to 1 of 1
  1. #1
    dR Rockers www.desirulez.net
    Join Date
    Aug 2011
    Posts
    5,859

    Cool Fukrey (2013) - 1/3 - DVDScr - x264 [ExD-ExclusivE]

    Follow us on Social Media













    Code:
    General
    Format : Matroska
    Format version : Version 2
    File size : 1.45 GiB
    Duration : 2h 11mn
    Overall bit rate : 1 587 Kbps
    Encoded date : UTC 2013-06-23 21:14:04
    Writing application : mkvmerge v6.2.0 ('Promised Land') built on Apr 28 2013 12:22:01
    Writing library : libebml v1.3.0 + libmatroska v1.4.0
    
    Video
    ID : 1
    Format : AVC
    Format/Info : Advanced Video Codec
    Format profile : [email protected]
    Format settings, CABAC : Yes
    Format settings, ReFrames : 4 frames
    Codec ID : V_MPEG4/ISO/AVC
    Duration : 2h 11mn
    Bit rate : 1 459 Kbps
    Width : 720 pixels
    Height : 304 pixels
    Display aspect ratio : 2.35:1
    Frame rate mode : Constant
    Frame rate : 23.976 fps
    Color space : YUV
    Chroma subsampling : 4:2:0
    Bit depth : 8 bits
    Scan type : Progressive
    Bits/(Pixel*Frame) : 0.278
    Stream size : 1.31 GiB (90%)
    Title : ExD
    Writing library : x264 core 133 r2334 a3ac64b
    Default : Yes
    Forced : No
    
    Audio
    ID : 2
    Format : AC-3
    Format/Info : Audio Coding 3
    Mode extension : CM (complete main)
    Format settings, Endianness : Big
    Codec ID : A_AC3
    Duration : 2h 11mn
    Bit rate mode : Constant
    Bit rate : 128 Kbps
    Channel(s) : 6 channels
    Channel positions : Front: L C R, Side: L R, LFE
    Sampling rate : 48.0 KHz
    Bit depth : 16 bits
    Compression mode : Lossy
    Stream size : 120 MiB (8%)
    Title : ExD
    Language : Hindi
    Default : Yes
    Forced : No





    SINGLE DIRECT FAST LINKS

    Code:
    http://extabit.com/file/2ductxs16j64o/Fukrey.(2013).1-3.DVDScr.x264.[ExD-ExclusivE].mkv
    Code:
    http://lumfile.com/r2nrucs0yudk/Fukrey.(2013).1-3.DVDScr.x264.[ExD-ExclusivE].mkv.html

 

 

Posting Permissions

  • You may not post new threads
  • You may not post replies
  • You may not post attachments
  • You may not edit your posts
  •