Results 1 to 1 of 1
  1. #1
    Hot Member www.desirulez.net
    Join Date
    Feb 2013
    Posts
    1,015

    Smile Prahaar (1991) 1GB XViD{ExD-XMR}

    Follow us on Social Media





    Prahaar (1991) 1GB XViD{ExD-XMR}



    Format : AVI
    Format/Info : Audio Video Interleave
    File size : 995 MiB
    Duration : 2h 32mn
    Overall bit rate : 914 Kbps
    Writing application : VirtualDubMod 1.5.10.2 (build 2542/release)
    Writing library : VirtualDubMod build 2542/release

    Video
    ID : 0
    Format : MPEG-4 Visual
    Format profile : Advanced [email protected]
    Format settings, BVOP : 2
    Format settings, QPel : No
    Format settings, GMC : No warppoints
    Format settings, Matrix : Default (MPEG)
    Muxing mode : Packed bitstream
    Codec ID : XVID
    Codec ID/Hint : XviD
    Duration : 2h 32mn
    Bit rate : 825 Kbps
    Width : 592 pixels
    Height : 320 pixels
    Display aspect ratio : 1.850
    Frame rate : 23.976 fps
    Color space : YUV
    Chroma subsampling : 4:2:0
    Bit depth : 8 bits
    Scan type : Progressive
    Compression mode : Lossy
    Bits/(Pixel*Frame) : 0.182
    Stream size : 897 MiB (90%)
    Writing library : XviD 1.2.1 (UTC 2008-12-04)

    Audio
    ID : 1
    Format : MPEG Audio
    Format version : Version 1
    Format profile : Layer 3
    Mode : Joint stereo
    Mode extension : MS Stereo
    Codec ID : 55
    Codec ID/Hint : MP3
    Duration : 2h 32mn
    Bit rate mode : Constant
    Bit rate : 80.0 Kbps
    Channel(s) : 2 channels
    Sampling rate : 32.0 KHz
    Compression mode : Lossy
    Stream size : 87.0 MiB (9%)
    Alignment : Aligned on interleaves
    Interleave, duration : 42 ms (1.00 video frame)
    Interleave, preload duration : 504 ms
    Writing library : LAME3.98r

    Ripper -=Rangeela=-













    [ DOWNLOAD ]


    [ arabloads ]

    Code:
    http://www.arabloads.com/5h2qodvxn5pc/Prahaar_(1991)_ExD-XMR.avi.html
    [ hugefiles ]

    Code:
    http://hugefiles.net/z2dvdjz6sjfn
    [ filesflash ]

    Code:
    http://filesflash.com/lwfe3xv6
    [ filesflash for indian users ]

    Code:
    http://filesflash:8001.com/lwfe3xv6










 

 

Posting Permissions

  • You may not post new threads
  • You may not post replies
  • You may not post attachments
  • You may not edit your posts
  •