Results 1 to 1 of 1
  1. #1
    Hot Member www.desirulez.net
    Join Date
    Feb 2013
    Posts
    1,015

    Smile Aaghaaz (2000) 2CD XViD 6 Channels AC3 ESubs{ExD-XMR}

    Follow us on Social Media





    Aaghaaz (2000) 2CD XViD 6 Channels AC3 ESubs{ExD-XMR}



    Format : AVI
    Format/Info : Audio Video Interleave
    File size : 1.36 GiB
    Duration : 2h 39mn
    Overall bit rate : 1 218 Kbps

    Video
    ID : 0
    Format : MPEG-4 Visual
    Format profile : [email protected]
    Format settings, BVOP : Yes
    Format settings, QPel : Yes
    Format settings, GMC : No warppoints
    Format settings, Matrix : Default (MPEG)
    Codec ID : XVID
    Codec ID/Hint : XviD
    Duration : 2h 39mn
    Bit rate : 1 019 Kbps
    Width : 624 pixels
    Height : 336 pixels
    Display aspect ratio : 1.857
    Frame rate : 23.976 fps
    Resolution : 24 bits
    Colorimetry : 4:2:0
    Scan type : Progressive
    Bits/(Pixel*Frame) : 0.203
    Stream size : 1.13 GiB (84%)
    Writing library : XviD 1.2.1 (UTC 2008-12-04)

    Audio
    ID : 1
    Format : AC-3
    Format/Info : Audio Coding 3
    Codec ID : 2000
    Duration : 2h 39mn
    Bit rate mode : Constant
    Bit rate : 192 Kbps
    Channel(s) : 6 channels
    Channel positions : Front: L C R, Surround: L R, LFE
    Sampling rate : 48.0 KHz
    Resolution : 16 bits
    Stream size : 219 MiB (16%)
    Alignment : Aligned on interleaves
    Interleave, duration : 42 ms (1.00 video frame)

    Ripper -=Rangeela=-

















    [ subtitle ]

    Code:
    http://www.arabloads.com/82cqz228ubh1/Aaghaaz_2CD.srt.html

    [ DOWNLOAD ]


    [ arabloads ]

    Code:
    http://www.arabloads.com/oqfolgs7sbiy/Aaghaaz_2CD.avi.html
    [ hugefiles ]

    Code:
    http://hugefiles.net/u3u1wzghseai
    [ filesflash ]

    Code:
    http://filesflash.com/bgqtf8b6
    [ filesflash for indian users ]

    Code:
    http://filesflash:8001.com/bgqtf8b6










 

 

Posting Permissions

  • You may not post new threads
  • You may not post replies
  • You may not post attachments
  • You may not edit your posts
  •