Results 1 to 1 of 1
  1. #1
    Hot Member www.desirulez.net
    Join Date
    Feb 2013
    Posts
    1,015

    Smile Goynar Baksho ~2013'NonRetail~Upscaled.DvdRip.720p [x264 - AC3-(2Ch)] - ExDRS

    Follow us on Social Media













    STORYLINE

    Genres: Drama
    Release Date: 12 April 2013
    Writer: Sirshendu Mukhopadhyay
    Directed by Aparna Sen
    Goynar Baksho (2013) - IMDb
    The film revolved around women of three generations and their lives and changing position of society. And this is shown in relation to a jewellery box.[1] The lead character is the matriarch of a Bengali Hindu family (Moushumi Chatterjee) of landed gentry in East Bengal. She was married off in an arranged marriage at age 11, and widowed shortly thereafter. The story of the film revolves around her wedding jewels, which she keeps sequestered in a box. After becoming a victim of ethnic cleansing during the partition of India, her family moves to the Republic of India from East Pakistan, losing their ancestral lands in the process. She spends the remainder of her life, apparently as a chaste widow, hiding her wedding jewels from her greedy relatives in the joint family. In 1949, she befriends the new bride of the family, her grandniece in law (Konkona Sen Sharma) shortly before dying.
    The grandniece is visited by the spirit of the matriarch, who demands that she hide the jewelry box from her relatives. Over the years, the family descends into poverty, losing money in judicial proceedings over family property disputes, while the grandniece, regularly monitored by the spirit of the matriarch, keeps the jewels hidden. Eventually, the spirit of the matriarch allows the grandniece to pawn some of the jewels so that her husband (Saswata Chatterjee) can set up a business, over the objections of the family, selling saris . The prosperity of the business allows her to buy the jewels back, completing the hidden collection. The grandniece discovers that her husband is having an extramarital affair, and complains to the ghost of the matriarch. The ghost of the matriarch regales her with a story of a torrid sexual liaison that she had with a labourer when she was alive and young, and encourages the grandniece to take on a lover of her own. She does so, and sires an illegitimate daughter with a secret lover. She masks the daughter as the husbands and raises her. The ghost of the matriarch abandons the grandniece and begins to visit her daughter instead.
    The final part of the film revolves around the daughter as she grows up (Srabanti Chatterjee) and becomes a modern Bengali Indian woman; going to college, driving, and becoming involved in politics. The film approaches the year 1971, when the Bangladesh Liberation War breaks out in East Pakistan. Bengalis in East Pakistan demand political, cultural and linguistic freedom from the intense and brutal oppression of Pakistan, and rebel against West Pakistan. The daughter's lover regularly crosses the border over to East Pakistan to aid the Mukti Bahini rebels in their struggle for freedom. The 1971 Bangladesh genocide becomes a backdrop of the film, and one of the rebels is murdered by a Pakistani death squad, following which the ghost of the matriarch advises the daughter to donate the jewels to the cause of the Mukti Bahini.


    INFO

    Moushumi Chatterjee
    Konkona Sen Sharma
    Srabanti Chatterjee
    Saswata Chatterjee
    Paran Bandopadhyay
    Aparajita Auddy
    Pijush Ganguly
    Manasi Sinha

    File size : 2.17 GiB
    Duration : 2h 15mn
    Overall bit rate : 2 291 Kbps
    Video
    ID : 1
    Format : AVC
    Format/Info : Advanced Video Codec
    Format profile : [email protected]
    Format settings, CABAC : Yes
    Format settings, ReFrames : 4 frames
    Codec ID : V_MPEG4/ISO/AVC
    Duration : 2h 15mn
    Bit rate : 2 100 Kbps
    Width : 1 280 pixels
    Height : 544 pixels
    Display aspect ratio : 2.35:1
    Frame rate mode : Constant
    Frame rate : 25.000 fps
    Color space : YUV
    Chroma subsampling : 4:2:0
    Bit depth : 8 bits
    Scan type : Progressive
    Bits/(Pixel*Frame) : 0.121
    Stream size : 1.95 GiB (90%)

    Audio
    ID : 2
    Format : AC-3
    Format/Info : Audio Coding 3
    Mode extension : CM (complete main)
    Format settings, Endianness : Big
    Codec ID : A_AC3
    Duration : 2h 15mn
    Bit rate mode : Constant
    Bit rate : 192 Kbps
    Channel(s) : 2 channels
    Channel positions : Front: L R
    Sampling rate : 48.0 KHz
    Bit depth : 16 bits
    Compression mode : Lossy
    Stream size : 186 MiB (8%)
    Default : Yes
    Forced : No


    SCREEN














    sample

    Code:
    http://www.arabloads.com/fcoji0b7lbo3/Sample.mkv.html

    DOWNLOAD


    [ arabloads ]

    Code:
    http://www.arabloads.com/orqfhjggh682/'Goynar_Baksho_~2013'NonRetail~Upscaled.DvdRip.720p.mkv.html
    [ hugefiles ]

    Code:
    http://hugefiles.net/57x2jjxgg5wl
    [ filesflash ]

    Code:
    http://filesflash.com/i1mnwtkk
    [ filesflash for indian users ]

    Code:
    http://filesflash:8001.com/i1mnwtkk
    [ speedshare ]

    Code:
    http://speedshare.eu/dz9l9mvqre1z/Goynar_Baksho_~2013'NonRetail~Upscaled.DvdRip.720p.mkv.html










 

 

Posting Permissions

  • You may not post new threads
  • You may not post replies
  • You may not post attachments
  • You may not edit your posts
  •