Results 1 to 1 of 1
  1. #1
    Super Member www.desirulez.net
    Join Date
    Sep 2012
    Location
    Pakistan
    Posts
    354

    Default Ghanchakkar (2013) - 700MB - 1CD - HDCAM - XViD - ExD-XMR

    Follow us on Social Media








    Code:
    Format : AVI
    Format/Info : Audio Video Interleave
    File size : 696 MiB
    Duration : 2h 4mn
    Overall bit rate : 782 Kbps
    Writing application : VirtualDubMod 1.5.10.2 (build 2542/release)
    Writing library : VirtualDubMod build 2542/release
    
    Video
    ID : 0
    Format : MPEG-4 Visual
    Format profile : Advanced [email protected]
    Format settings, BVOP : 2
    Format settings, QPel : Yes
    Format settings, GMC : No warppoints
    Format settings, Matrix : Default (H.263)
    Codec ID : XVID
    Codec ID/Hint : XviD
    Duration : 2h 4mn
    Bit rate : 692 Kbps
    Width : 624 pixels
    Height : 272 pixels
    Display aspect ratio : 2.25:1
    Frame rate : 25.000 fps
    Color space : YUV
    Chroma subsampling : 4:2:0
    Bit depth : 8 bits
    Scan type : Progressive
    Compression mode : Lossy
    Bits/(Pixel*Frame) : 0.163
    Stream size : 616 MiB (89%)
    Writing library : XviD 1.2.1 (UTC 2008-12-04)
    
    Audio
    ID : 1
    Format : MPEG Audio
    Format version : Version 1
    Format profile : Layer 3
    Mode : Joint stereo
    Mode extension : MS Stereo
    Codec ID : 55
    Codec ID/Hint : MP3
    Duration : 2h 4mn
    Bit rate mode : Constant
    Bit rate : 80.0 Kbps
    Channel(s) : 2 channels
    Sampling rate : 48.0 KHz
    Compression mode : Lossy
    Stream size : 71.3 MiB (10%)
    Alignment : Aligned on interleaves
    Interleave, duration : 40 ms (1.00 video frame)
    Interleave, preload duration : 504 ms
    Writing library : LAME3.98.3

    [FONT=Verdana]
















    DOWNLOAD


    Code:
    http://uploaded.net/file/2bveaj63/Ghanchakkar.%282013%29.1CD.XViD.%7BExD-XMR%7D.avi

    Code:
    http://extabit.com/file/2ducu223mw1e0/Ghanchakkar.(2013).1CD.XViD.{ExD-XMR}.avi

    Code:
    http://rapidgator.net/file/9ea860bf0f4454c13c0a7e0faf72f54a/Ghanchakkar.(2013).1CD.XViD.{ExD-XMR}.avi.html

 

 

Posting Permissions

  • You may not post new threads
  • You may not post replies
  • You may not post attachments
  • You may not edit your posts
  •