Results 1 to 1 of 1
  1. #1

    Cool Ghanchakkar (2013) - Untouched - SCAM - MPEG - DDD

    Follow us on Social Media







    General
    Format : MPEG-PS
    File size : 595 MiB
    Duration : 2h 4mn
    Overall bit rate mode : Variable
    Overall bit rate : 668 Kbps

    Video
    ID : 224 (0xE0)
    Format : MPEG Video
    Format version : Version 2
    Format profile : [email protected]
    Format settings, BVOP : Yes
    Format settings, Matrix : Default
    Format settings, GOP : M=3, N=13
    Duration : 2h 4mn
    Bit rate mode : Variable
    Bit rate : 526 Kbps
    Maximum bit rate : 9 672 Kbps
    Width : 352 pixels
    Height : 288 pixels
    Display aspect ratio : 4:3
    Frame rate : 25.000 fps
    Standard : PAL
    Color space : YUV
    Chroma subsampling : 4:2:0
    Bit depth : 8 bits
    Scan type : Progressive
    Compression mode : Lossy
    Bits/(Pixel*Frame) : 0.208
    Stream size : 469 MiB (79%)

    Audio
    ID : 192 (0xC0)
    Format : MPEG Audio
    Format version : Version 1
    Format profile : Layer 2
    Duration : 2h 4mn
    Bit rate mode : Constant
    Bit rate : 128 Kbps
    Channel(s) : 2 channels
    Sampling rate : 48.0 KHz
    Compression mode : Lossy
    Stream size : 114 MiB (19%)


    Code:
    http://rapidgator.net/file/aa071db57d5ffb6748baa3311dae4265/'Ghanchakkar_'-2013-_SCam_Rip_-_MPEG.VOB.html
    
    http://ul.to/wovvzi5e
    
    https://ultramegabit.com/file/details/fHlNlpvptDY

 

 

Posting Permissions

  • You may not post new threads
  • You may not post replies
  • You may not post attachments
  • You may not edit your posts
  •