Results 1 to 1 of 1
  1. #1
    Hot Member www.desirulez.net
    Join Date
    Feb 2013
    Posts
    1,015

    Smile Himmatwala {2013} 720P-1GB -DVDRIP-x264-AC3 5.1 -ESUBS [email protected]}

    Follow us on Social Media





    Himmatwala {2013} 720P-1GB -DVDRIP-x264-AC3 5.1 -ESUBS [email protected]}



    Format : Matroska
    Format version : Version 2
    File size : 1.30 GiB
    Duration : 2h 26mn
    Overall bit rate : 1 264 Kbps

    Video
    ID : 1
    Format : AVC
    Format/Info : Advanced Video Codec
    Format profile : [email protected]
    Format settings, CABAC : Yes
    Format settings, ReFrames : 4 frames
    Codec ID : V_MPEG4/ISO/AVC
    Duration : 2h 26mn
    Bit rate : 1 134 Kbps
    Width : 1 280 pixels
    Height : 528 pixels
    Display aspect ratio : 2.40:1
    Frame rate mode : Constant
    Frame rate : 23.976 fps
    Color space : YUV
    Chroma subsampling : 4:2:0
    Bit depth : 8 bits
    Scan type : Progressive
    Bits/(Pixel*Frame) : 0.070
    Stream size : 1.14 GiB (88%)
    Writing library : x264 core 133 r2334 a3ac64b

    Audio
    ID : 2
    Format : AC-3
    Format/Info : Audio Coding 3
    Mode extension : CM (complete main)
    Format settings, Endianness : Big
    Codec ID : A_AC3
    Duration : 2h 26mn
    Bit rate mode : Constant
    Bit rate : 128 Kbps
    Channel(s) : 6 channels
    Channel positions : Front: L C R, Side: L R, LFE
    Sampling rate : 48.0 KHz
    Bit depth : 16 bits
    Compression mode : Lossy
    Stream size : 135 MiB (10%)
    Default : Yes
    Forced : No









    [ subtitle ]

    Code:
    http://www.arabloads.com/ciet1xi7n0kx/Himmatwala_%7B2013%7D.sub.html
    Code:
    http://www.arabloads.com/3urjpuk6y57f/Himmatwala_%7B2013%7D.idx.html

    [ DOWNLOAD ]


    [ arabloads ]

    Code:
    http://www.arabloads.com/wrh7h1ym9cf7/Himmatwala_%7B2013%7D.mkv.html
    [ hugefiles ]

    Code:
    http://hugefiles.net/56aue9lqu8lk
    [ filesflash ]

    Code:
    http://filesflash.com/jrczwzeq










 

 

Posting Permissions

  • You may not post new threads
  • You may not post replies
  • You may not post attachments
  • You may not edit your posts
  •