Results 1 to 1 of 1
  1. #1
    Hot Member www.desirulez.net
    Join Date
    Feb 2013
    Posts
    1,015

    Smile Raanjhanaa (2013) 1GB XViD Scr 6Chnls AC3{ExD-XMR}

    Follow us on Social Media





    Raanjhanaa (2013) 1GB XViD Scr 6Chnls AC3{ExD-XMR}




    Format : AVI
    Format/Info : Audio Video Interleave
    File size : 1.00 GiB
    Duration : 2h 15mn
    Overall bit rate : 1 053 Kbps
    Writing application : VirtualDubMod 1.5.10.2 (build 2542/release)
    Writing library : VirtualDubMod build 2542/release

    Video
    ID : 0
    Format : MPEG-4 Visual
    Format profile : Advanced [email protected]
    Format settings, BVOP : 2
    Format settings, QPel : Yes
    Format settings, GMC : No warppoints
    Format settings, Matrix : Custom
    Codec ID : XVID
    Codec ID/Hint : XviD
    Duration : 2h 15mn
    Bit rate : 852 Kbps
    Width : 640 pixels
    Height : 288 pixels
    Display aspect ratio : 2.222
    Frame rate : 23.976 fps
    Color space : YUV
    Chroma subsampling : 4:2:0
    Bit depth : 8 bits
    Scan type : Progressive
    Compression mode : Lossy
    Bits/(Pixel*Frame) : 0.193
    Stream size : 828 MiB (81%)
    Writing library : XviD 1.2.1 (UTC 2008-12-04)

    Audio
    ID : 1
    Format : AC-3
    Format/Info : Audio Coding 3
    Mode extension : CM (complete main)
    Codec ID : 2000
    Duration : 2h 15mn
    Bit rate mode : Constant
    Bit rate : 192 Kbps
    Channel(s) : 6 channels
    Channel positions : Front: L C R, Side: L R, LFE
    Sampling rate : 48.0 KHz
    Bit depth : 16 bits
    Compression mode : Lossy
    Stream size : 187 MiB (18%)
    Alignment : Split accross interleaves
    Interleave, duration : 42 ms (1.00 video frame)
    Interleave, preload duration : 500 ms




















    [ DOWNLOAD ]


    [ arabloads ]

    Code:
    http://www.arabloads.com/vb4hwkrn9w83/Raanjhanaa_(2013)_1GB_XViD_%7BExD-XMR%7D.avi.html
    [ hugefiles ]

    Code:
    http://hugefiles.net/gl7au4z4qd94
    [ filesflash ]

    Code:
    http://filesflash.com/q6ls92fs










 

 

Posting Permissions

  • You may not post new threads
  • You may not post replies
  • You may not post attachments
  • You may not edit your posts
  •