Results 1 to 1 of 1
  1. #1
    Hot Member www.desirulez.net
    Join Date
    Feb 2013
    Posts
    1,015

    Smile Kon Jeeta Kon Haara Full Comedy Stage Drama - 2CDRip - [ExDE$ Exclusive]

    Follow us on Social Media





    Kon Jeeta Kon Haara Full Comedy Stage Drama - 2CDRip - [ExDE$ Exclusive]



    Star Cast



    Audio - Video Info

    Complete name : Kon Jeeta Kon Haara Full Comedy Stage Drama - 2CDRip - [ExDE$ Exclusive]
    Format : Matroska
    Format version : Version 4 / Version 2
    File size : 1.45 GiB
    Duration : 2h 35mn
    Overall bit rate : 1 339 Kbps

    Video
    Format : MPEG Video
    Codec ID/Info : MPEG 1 or 2 Video
    Duration : 2h 35mn
    Width : 352 pixels
    Height : 288 pixels
    Display aspect ratio : 1.222
    Original display aspect ratio : 4:3
    Frame rate mode : Constant
    Frame rate : 25.000 fps
    Stream size : 1.18 GiB (81%)
    Title : -=Rana.Aqib786=- @ Team ExDe$
    Language : Panjabi
    Default : Yes
    Forced : No

    Audio
    Format : MPEG Audio
    Format version : Version 1
    Format profile : Layer 2
    Codec ID/Hint : MP2
    Duration : 2h 35mn
    Bit rate mode : Constant
    Bit rate : 224 Kbps
    Channel(s) : 2 channels
    Stream size : 248 MiB (17%)
    Title : -=Rana.Aqib786=- @ Team ExDe$
    Language : Panjabi






    [ sample ]

    Code:
    http://www.arabloads.com/6y8ld8pbe0hd/Kon_Jeeta_Kon_Haara_Full_Comedy_Stage_Drama_-_[Sample].mkv.html

    [ DOWNLOAD ]


    [ arabloads ]

    Code:
    http://www.arabloads.com/owt6qma98juy/Kon_Jeeta_Kon_Haara_Full_Comedy_Stage_Drama_-_2CDRip_-_[ExDE$_Exclusive].mkv.html
    [ hugefiles ]

    Code:
    http://hugefiles.net/bu99re6g1t9c












 

 

Posting Permissions

  • You may not post new threads
  • You may not post replies
  • You may not post attachments
  • You may not edit your posts
  •