Results 1 to 1 of 1
  1. #1
    dR Rockers www.desirulez.net
    Join Date
    Jun 2011
    Posts
    2,793

    Thumbs up Ek Khiladi Ek Haseena 2005 DVDRip 1cd Xvid Mp3 700Mb

    Follow us on Social Media









    General
    Format : Matroska
    Format version : Version 4 / Version 2
    File size : 691 MiB
    Duration : 2h 23mn
    Overall bit rate : 675 Kbps
    Encoded date : UTC 2013-04-23 03:12:05
    Writing application : mkvmerge v6.1.0 ('Old Devil') built on Mar 3 2013 09:55:00
    Writing library : libebml v1.3.0 + libmatroska v1.4.0

    Video
    ID : 1
    Format : MPEG-4 Visual
    Format profile : Advanced [email protected]
    Format settings, BVOP : Yes
    Format settings, QPel : No
    Format settings, GMC : No warppoints
    Format settings, Matrix : Default (MPEG)
    Codec ID : XVID
    Codec ID/Hint : XviD
    Duration : 2h 23mn
    Bit rate : 565 Kbps
    Width : 640 pixels
    Height : 288 pixels
    Display aspect ratio : 2.222
    Frame rate : 29.970 fps
    Color space : YUV
    Chroma subsampling : 4:2:0
    Bit depth : 8 bits
    Scan type : Progressive
    Compression mode : Lossy
    Bits/(Pixel*Frame) : 0.102
    Stream size : 579 MiB (84%)
    Writing library : XviD 1.2.0.dev47 (UTC 2006-11-01)
    Default : Yes
    Forced : No

    Audio
    ID : 2
    Format : MPEG Audio
    Format version : Version 1
    Format profile : Layer 3
    Mode : Joint stereo
    Mode extension : MS Stereo
    Codec ID : A_MPEG/L3
    Codec ID/Hint : MP3
    Duration : 2h 23mn
    Bit rate mode : Constant
    Bit rate : 96.0 Kbps
    Channel(s) : 2 channels
    Sampling rate : 32.0 KHz
    Compression mode : Lossy
    Stream size : 98.3 MiB (14%)
    Writing library : LAME3.98a
    Encoding settings : -m j -V 4 -q 2 -lowpass 15.1 -b 96
    Default : Yes
    Forced : No

    Text
    ID : 3
    Format : UTF-8
    Codec ID : S_TEXT/UTF8
    Codec ID/Info : UTF-8 Plain Text
    Default : Yes
    Forced : No






    (Resume Support)
    Code:
    http://www.arabloads.com/zh7lv6ts4qd5/EkKhiladiEkHasina.mkv.html


    Code:
    http://turbobit.net/jzn2jmsal12x.html



 

 

Posting Permissions

  • You may not post new threads
  • You may not post replies
  • You may not post attachments
  • You may not edit your posts
  •