Results 1 to 1 of 1
  1. #1
    dR Rockers www.desirulez.net
    Join Date
    Aug 2011
    Posts
    5,859

    Cool Yeh Jawaani Hai Deewani (2013) 1GB XViD Scr 6Chnls ESubs {Team ExD}

    Follow us on Social Media













    Code:
    Format : AVI
    Format/Info : Audio Video Interleave
    File size : 1 023 MiB
    Duration : 2h 40mn
    Overall bit rate : 894 Kbps
    Writing application : VirtualDubMod 1.5.10.2 (build 2542/release)
    Writing library : VirtualDubMod build 2542/release
    
    Video
    ID : 0
    Format : MPEG-4 Visual
    Format profile : Advanced [email protected]
    Format settings, BVOP : 2
    Format settings, QPel : Yes
    Format settings, GMC : No warppoints
    Format settings, Matrix : Default (H.263)
    Codec ID : XVID
    Codec ID/Hint : XviD
    Duration : 2h 40mn
    Bit rate : 693 Kbps
    Width : 624 pixels
    Height : 272 pixels
    Display aspect ratio : 2.25:1
    Frame rate : 23.976 fps
    Color space : YUV
    Chroma subsampling : 4:2:0
    Bit depth : 8 bits
    Scan type : Progressive
    Compression mode : Lossy
    Bits/(Pixel*Frame) : 0.170
    Stream size : 793 MiB (77%)
    Writing library : XviD 1.2.1 (UTC 2008-12-04)
    
    Audio
    ID : 1
    Format : AC-3
    Format/Info : Audio Coding 3
    Mode extension : CM (complete main)
    Codec ID : 2000
    Duration : 2h 40mn
    Bit rate mode : Constant
    Bit rate : 192 Kbps
    Channel(s) : 6 channels
    Channel positions : Front: L C R, Side: L R, LFE
    Sampling rate : 48.0 KHz
    Bit depth : 16 bits
    Compression mode : Lossy
    Stream size : 220 MiB (21%)
    Alignment : Split accross interleaves
    Interleave, duration : 42 ms (1.00 video frame)
    Interleave, preload duration : 500 ms















    SINGLE DIRECT FAST LINKS

    Code:
    http://extabit.com/file/2da6t4vpysj6b/Yeh.Jawani.Hai.Deewani.(2013).1GB.XViDScr.{Team.ExD}.avi
    http://extabit.com/file/2da6t4vpyspmb/Yeh.Jawani.Hai.Deewani.(2013).1GB.XViDScr.{Team.ExD}.srt
    Code:
    http://lumfile.com/dfv6vh85aaym/Yeh.Jawani.Hai.Deewani.(2013).1GB.XViDScr.{Team.ExD}.avi.html
    http://lumfile.com/z9pu3xl12ofi/Yeh.Jawani.Hai.Deewani.(2013).1GB.XViDScr.{Team.ExD}.srt.html

 

 

Tags for this Thread

Posting Permissions

  • You may not post new threads
  • You may not post replies
  • You may not post attachments
  • You may not edit your posts
  •