Results 1 to 1 of 1
  1. #1
    dR Rockers www.desirulez.net
    Join Date
    Aug 2011
    Posts
    5,859

    Cool Yamla Pagla Deewana 2 (2013) 1/3DVDr XViD Scr 6Chnls ESubs {Team ExD}

    Follow us on Social Media












    Code:
    Format : AVI
    Format/Info : Audio Video Interleave
    File size : 1.45 GiB
    Duration : 2h 34mn
    Overall bit rate : 1 343 Kbps
    Writing application : VirtualDubMod 1.5.10.2 (build 2542/release)
    Writing library : VirtualDubMod build 2542/release
    
    Video
    ID : 0
    Format : MPEG-4 Visual
    Format profile : Advanced [email protected]
    Format settings, BVOP : 2
    Format settings, QPel : Yes
    Format settings, GMC : No warppoints
    Format settings, Matrix : Custom
    Codec ID : XVID
    Codec ID/Hint : XviD
    Duration : 2h 34mn
    Bit rate : 1 142 Kbps
    Width : 688 pixels
    Height : 304 pixels
    Display aspect ratio : 2.25:1
    Frame rate : 23.976 fps
    Color space : YUV
    Chroma subsampling : 4:2:0
    Bit depth : 8 bits
    Scan type : Progressive
    Compression mode : Lossy
    Bits/(Pixel*Frame) : 0.228
    Stream size : 1.23 GiB (85%)
    Writing library : XviD 1.2.1 (UTC 2008-12-04)
    
    Audio
    ID : 1
    Format : AC-3
    Format/Info : Audio Coding 3
    Mode extension : CM (complete main)
    Codec ID : 2000
    Duration : 2h 34mn
    Bit rate mode : Constant
    Bit rate : 192 Kbps
    Channel(s) : 6 channels
    Channel positions : Front: L C R, Side: L R, LFE
    Sampling rate : 48.0 KHz
    Bit depth : 16 bits
    Compression mode : Lossy
    Stream size : 212 MiB (14%)
    Alignment : Split accross interleaves
    Interleave, duration : 42 ms (1.00 video frame)
    Interleave, preload duration : 500 ms


















    SINGLE DIRECT FAST LINKS

    Code:
    http://extabit.com/file/2da6t4vpysjbn/Yamla.Pagla.Deewana.2.(2013).1by3DVDr.XViD.{Team.ExD}.avi
    http://extabit.com/file/2da6t4vpysplv/Yamla.Pagla.Deewana.2.(2013).1by3DVDr.XViD.{Team.ExD}.srt

    Code:
    http://lumfile.com/k67necplokxh/Yamla.Pagla.Deewana.2.(2013).1by3DVDr.XViD.{Team.ExD}.avi.html
    http://lumfile.com/co72k2xor7gb/Yamla.Pagla.Deewana.2.(2013).1by3DVDr.XViD.{Team.ExD}.srt.html

 

 

Tags for this Thread

Posting Permissions

  • You may not post new threads
  • You may not post replies
  • You may not post attachments
  • You may not edit your posts
  •